<?xml version="1.0" standalone="no"?>
<!DOCTYPE svg PUBLIC "-//W3C//DTD SVG 1.1//EN" "http://www.w3.org/Graphics/SVG/1.1/DTD/svg11.dtd" >
<svg xmlns="http://www.w3.org/2000/svg" xmlns:xlink="http://www.w3.org/1999/xlink" version="1.1">
<metadata>
Created by FontForge 20201107 at Mon Mar 18 15:12:48 2024
 By 
2018 Ufuk Aracoglu, published by Horizon Type
</metadata>
<defs>
<font id="Marcher-Bold" horiz-adv-x="1212" >
  <font-face 
    font-family="Marcher Bold"
    font-weight="700"
    font-stretch="normal"
    units-per-em="2048"
    panose-1="0 0 0 0 0 0 0 0 0 0"
    ascent="1638"
    descent="-410"
    x-height="1024"
    cap-height="1434"
    bbox="-121 -557 3942 2380"
    underline-thickness="102"
    underline-position="-204"
    unicode-range="U+000D-25CA"
  />
<missing-glyph horiz-adv-x="1202" 
d="M246 1434h698q57 0 91 -34t34 -91v-1184q0 -57 -34 -91t-91 -34h-698q-57 0 -91 34t-34 91v1184q0 57 34 91t91 34zM449 309q0 -43 29.5 -72.5t72.5 -29.5t74.5 30t31.5 72q0 43 -31.5 74t-74.5 31q-42 0 -72 -31t-30 -74zM377 1184v-164q95 53 178 53q67 0 99 -28.5
t32 -77.5q0 -39 -27.5 -82.5t-64.5 -82t-72 -79.5t-53 -90.5t-6 -100.5h158q-12 43 7 83.5t56 77.5t75 77t66.5 99.5t28.5 127.5q0 102 -71 166t-205 64q-98 0 -201 -43z" />
    <glyph glyph-name="Logo" unicode="HORIZONTYPE" horiz-adv-x="4177" 
d="M1800 0v1434h2142v-1434h-2142zM1669 1434v-1434h-1433v1434h1433zM520 580q38 -78 92.5 -120t114.5 -42t111 51l170 170l110 -107l19 19l-111 106l180 183q50 47 101 47q50 0 67 -45l6 -11q7 -23 1.5 -29.5t-25.5 -6.5q-8 0 -26 2t-27 2q-35 0 -52 -17
q-25 -25 -26 -54.5t26 -57.5q27 -23 56 -23q45 0 82 37q52 52 -5 166q-37 77 -93 119.5t-113 42.5q-64 0 -111 -47l-170 -174l-111 106l-18 -18l106 -107l-180 -178q-54 -51 -100 -51q-49 0 -66 45l-4 10q-8 23 -2 30t27 7h53q35 0 51 16q25 25 25.5 55.5t-25.5 57.5
q-21 18 -55 18q-50 0 -82 -32q-52 -52 4 -170zM3267 786q45 0 77.5 35t32.5 80q0 39 -22 69.5t-58 41.5q-20 4 -30 4q-11 0 -31 -4q-36 -11 -58 -41.5t-22 -69.5q0 -45 33 -80t78 -35zM2490 1012q-36 -11 -58 -41.5t-22 -69.5q0 -45 33 -80t78 -35q6 0 31 5q36 10 58 41
t22 69q0 40 -21.5 70.5t-58.5 40.5q-20 4 -31 4t-31 -4zM3412 791h55v133l99 -133h53v221h-58v-129l-98 129h-51v-221zM2669 791h51v81h14l53 -81h58v8l-52 78q50 15 50 65q0 30 -20 50t-62 20h-92v-221zM2181 1012v-221h55v88h88v-88h52v221h-52v-84h-88v84h-55zM2660 647
h-88v-223h56v78h32q39 0 58.5 21t19.5 52q0 15 -2 23q-15 49 -76 49zM2771 424h151l5 49h-103v41h96v47h-96v37h98v49h-151v-223zM2959 836v-45h179l4 49h-111l102 129v43h-165v-47h100zM2406 647h-55v-4l74 -123v-96h51v96l74 123v4h-56l-45 -74zM2167 647v-49h61v-174h51
v174h58l2 49h-172zM2466 901q0 26 14.5 47t40.5 21t42.5 -21.5t16.5 -46.5q0 -24 -16.5 -44.5t-42.5 -20.5t-40.5 20t-14.5 45zM3267 836q-26 0 -41 20.5t-15 44.5q0 26 15 47t41 21t40.5 -21t14.5 -47q0 -25 -14.5 -45t-40.5 -20zM2875 1012v-221h52v221h-52zM2720 969h33
q16 0 25 -8t9 -19q0 -27 -34 -27h-33v54zM2628 602h22q11 0 23 -4q10 -5 10 -23q0 -15 -7 -21.5t-26 -6.5h-22v55z" />
    <glyph glyph-name="N_N" unicode="NN" horiz-adv-x="2510" 
d="M465 0h-342v1434h285l675 -736v736h285l678 -736v736h342v-1440h-154l-807 864v-864h-153l-809 864v-858z" />
    <glyph glyph-name=".notdef" horiz-adv-x="1202" 
d="M246 1434h698q57 0 91 -34t34 -91v-1184q0 -57 -34 -91t-91 -34h-698q-57 0 -91 34t-34 91v1184q0 57 34 91t91 34zM449 309q0 -43 29.5 -72.5t72.5 -29.5t74.5 30t31.5 72q0 43 -31.5 74t-74.5 31q-42 0 -72 -31t-30 -74zM377 1184v-164q95 53 178 53q67 0 99 -28.5
t32 -77.5q0 -39 -27.5 -82.5t-64.5 -82t-72 -79.5t-53 -90.5t-6 -100.5h158q-12 43 7 83.5t56 77.5t75 77t66.5 99.5t28.5 127.5q0 102 -71 166t-205 64q-98 0 -201 -43z" />
    <glyph glyph-name="uni0000" horiz-adv-x="0" 
 />
    <glyph glyph-name="uni0000" horiz-adv-x="0" 
 />
    <glyph glyph-name="uni000D" unicode="&#xd;" horiz-adv-x="512" 
 />
    <glyph glyph-name="space" unicode=" " horiz-adv-x="614" 
 />
    <glyph glyph-name="exclam" unicode="!" horiz-adv-x="620" 
d="M131 1444h358v-176l-59 -772h-244l-55 772v176zM115 172q0 82 55.5 140.5t136.5 58.5q82 0 140.5 -58.5t58.5 -140.5q0 -81 -58.5 -136.5t-140.5 -55.5t-137 55t-55 137z" />
    <glyph glyph-name="quotedbl" unicode="&#x22;" horiz-adv-x="882" 
d="M115 866v609h309v-37l-117 -572h-192zM494 866v609h307v-37l-115 -572h-192z" />
    <glyph glyph-name="numbersign" unicode="#" horiz-adv-x="1538" 
d="M276 307h-223v301h269l36 238h-225v301h268l45 289h336l-45 -289h176l48 289h335l-45 -289h240v-301h-285l-35 -238h240v-301h-285l-47 -307h-336l48 307h-177l-47 -307h-338zM657 608h177l36 238h-176z" />
    <glyph glyph-name="dollar" unicode="$" horiz-adv-x="1181" 
d="M571 301q228 0 228 123q0 52 -62 84q-29 16 -73 31t-109.5 33.5t-103.5 31.5q-76 25 -133 54.5t-112.5 77t-85.5 118.5t-30 162q0 154 96.5 261t264.5 142v221h286v-217q168 -25 332 -114l-29 -318q-114 70 -211 104.5t-211 34.5q-194 0 -194 -108q0 -29 27 -53
q18 -16 51.5 -31.5t63 -25t85 -26.5t86.5 -28q65 -21 115 -42.5t105.5 -57.5t91.5 -79t60 -107.5t24 -141.5q0 -179 -103.5 -284.5t-292.5 -135.5v-217h-286v215q-194 28 -367 125v318q135 -72 250.5 -111t236.5 -39z" />
    <glyph glyph-name="percent" unicode="%" horiz-adv-x="1685" 
d="M399 723q-142 0 -244 105.5t-102 261.5q0 157 102 261.5t244 104.5q144 0 247.5 -104.5t103.5 -261.5q0 -156 -104 -261.5t-247 -105.5zM399 958q50 0 82.5 38t32.5 96q0 57 -32.5 94t-82.5 37q-48 0 -81 -37.5t-33 -93.5q0 -58 33 -96t81 -38zM502 -4h-262v27l929 1402
h263v-20zM1280 -23q-142 0 -245 105.5t-103 261.5q0 157 103 262t245 105t245 -105t103 -262q0 -156 -103 -261.5t-245 -105.5zM1280 213q50 0 82.5 37.5t32.5 95.5t-32.5 94.5t-82.5 36.5t-82.5 -36.5t-32.5 -94.5t32.5 -95.5t82.5 -37.5z" />
    <glyph glyph-name="ampersand" unicode="&#x26;" horiz-adv-x="1437" 
d="M47 381q0 88 32 159.5t92.5 124.5t131 91t164.5 71l-272 451v156h958l-33 -316h-438l342 -565l190 154l179 -261l-203 -163l205 -340v-35h-369l-106 176q-190 -107 -390 -107q-224 0 -353.5 111.5t-129.5 292.5zM758 350l-142 234l-49 -23q-93 -39 -135.5 -78t-42.5 -90
t39.5 -79.5t112.5 -28.5q100 0 217 65z" />
    <glyph glyph-name="quotesingle" unicode="'" horiz-adv-x="481" 
d="M346 874h-213l-47 609h307z" />
    <glyph glyph-name="parenleft" unicode="(" horiz-adv-x="759" 
d="M403 631q0 -199 78.5 -378t251.5 -364l-221 -200q-100 90 -177.5 184t-142.5 210t-100 255t-35 293t35 293t100 255t142.5 210t177.5 184l221 -201q-173 -186 -251.5 -364t-78.5 -377z" />
    <glyph glyph-name="parenright" unicode=")" horiz-adv-x="749" 
d="M358 631q0 198 -78.5 376.5t-250.5 364.5l219 201q101 -90 178.5 -184t142 -210t99 -254.5t34.5 -293.5t-34.5 -293.5t-99 -254.5t-142 -210t-178.5 -184l-219 200q172 186 250.5 365t78.5 377z" />
    <glyph glyph-name="asterisk" unicode="*" horiz-adv-x="909" 
d="M43 987l207 98l-207 99l107 186l212 -135l-14 242h215l-14 -242l215 135l102 -186l-204 -99l204 -98l-102 -186l-215 133l14 -242h-215l14 242l-212 -133z" />
    <glyph glyph-name="plus" unicode="+" horiz-adv-x="1034" 
d="M45 803h324v323h299v-323h323v-299h-323v-324h-299v324h-324v299z" />
    <glyph glyph-name="comma" unicode="," horiz-adv-x="532" 
d="M-20 -401l178 747h293v-35l-179 -712h-292z" />
    <glyph glyph-name="hyphen" unicode="-" horiz-adv-x="890" 
d="M823 504h-755v297h755v-297z" />
    <glyph glyph-name="period" unicode="." horiz-adv-x="563" 
d="M86 172q0 82 56 140.5t137 58.5q82 0 140 -58.5t58 -140.5q0 -81 -58 -136.5t-140 -55.5t-137.5 55t-55.5 137z" />
    <glyph glyph-name="slash" unicode="/" horiz-adv-x="815" 
d="M508 1516h317l-518 -1688h-317z" />
    <glyph glyph-name="zero" unicode="0" horiz-adv-x="1249" 
d="M403 717q0 -422 222 -422q223 0 223 422t-223 422q-222 0 -222 -422zM51 717q0 155 36 288t105.5 234.5t180.5 159t252 57.5q113 0 207.5 -37.5t161.5 -105t113.5 -160.5t68.5 -202.5t22 -233.5q0 -155 -36 -288t-105 -234.5t-180 -159.5t-252 -58t-252 58t-180.5 159.5
t-105.5 234.5t-36 288z" />
    <glyph glyph-name="one" unicode="1" horiz-adv-x="784" 
d="M664 0h-345v1047l-260 -74v321l514 146h91v-1440z" />
    <glyph glyph-name="two" unicode="2" horiz-adv-x="1173" 
d="M104 0v283q282 134 449.5 307.5t167.5 349.5q0 98 -55 151.5t-160 53.5q-97 0 -200 -42t-187 -102v314q95 66 218.5 103.5t244.5 37.5q119 0 214.5 -37.5t155 -102.5t90.5 -149t31 -180q0 -101 -34 -202t-93 -186t-129.5 -156t-150.5 -128h467l-21 -315h-1008z" />
    <glyph glyph-name="three" unicode="3" horiz-adv-x="1126" 
d="M1012 1143l-236 -281q293 -102 293 -397q0 -101 -38 -189.5t-108.5 -155t-178.5 -105t-240 -38.5q-124 0 -238 35t-188 82l-21 322q217 -121 396 -121q135 0 199.5 55.5t64.5 136.5q0 72 -52 121t-135 70.5t-192 21.5h-29v43l318 377h-547l20 314h912v-291z" />
    <glyph glyph-name="four" unicode="4" horiz-adv-x="1130" 
d="M55 330l-55 194l465 910h362l-413 -818h227v265h313v-265h176l-18 -286l-158 2v-332h-319v332z" />
    <glyph glyph-name="five" unicode="5" horiz-adv-x="1128" 
d="M88 76l-20 321q198 -106 393 -106q123 0 191.5 45.5t68.5 140.5q0 77 -52.5 112.5t-174.5 35.5q-108 0 -320 -31h-49l20 840h877l-21 -316h-538l-6 -225q126 14 178 14q216 0 327 -109t111 -309q0 -241 -151 -376.5t-404 -135.5q-201 0 -430 99z" />
    <glyph glyph-name="six" unicode="6" horiz-adv-x="1126" 
d="M51 678q0 176 33 315.5t102 244.5t183 161.5t268 56.5q212 0 383 -108l-19 -287q-159 88 -315 88q-150 0 -224.5 -83t-74.5 -228q127 71 281 71q185 0 299 -116t114 -318q0 -230 -136 -364t-365 -134q-529 0 -529 701zM389 555q0 -118 48.5 -198.5t137.5 -80.5
q84 0 127 48.5t43 126.5q0 82 -40.5 119.5t-126.5 37.5q-110 0 -189 -53z" />
    <glyph glyph-name="seven" unicode="7" horiz-adv-x="1015" 
d="M459 0h-367l535 1118h-611l21 316h979v-267z" />
    <glyph glyph-name="eight" unicode="8" horiz-adv-x="1142" 
d="M571 -23q-242 0 -381 117.5t-139 298.5q0 75 28 139.5t69.5 105t78 64.5t64.5 33v4q-19 5 -50 27.5t-66 59t-60 94.5t-25 122q0 84 28.5 156.5t85 131t151.5 92.5t218 34q121 0 215 -34t151 -92t85.5 -131t28.5 -157q0 -64 -25 -122t-60 -94.5t-66 -59t-50 -27.5v-4
q28 -9 64 -33t78 -64.5t70 -105.5t28 -139q0 -181 -138.5 -298.5t-382.5 -117.5zM571 594q-86 0 -136 -42t-50 -116q0 -72 48 -114.5t138 -42.5t137.5 42.5t47.5 114.5q0 74 -50 116t-135 42zM571 1155q-81 0 -116 -43t-35 -102q0 -63 37.5 -102.5t113.5 -39.5t114 39.5
t38 102.5q0 59 -35.5 102t-116.5 43z" />
    <glyph glyph-name="nine" unicode="9" horiz-adv-x="1122" 
d="M1075 756q0 -176 -33 -316t-102 -245t-183 -161.5t-268 -56.5q-206 0 -383 109l21 287q159 -88 315 -88q150 0 223.5 83t73.5 228q-126 -72 -278 -72q-186 0 -300 116t-114 318q0 230 136.5 364t363.5 134q528 0 528 -700zM739 879q0 118 -48.5 198t-139.5 80
q-83 0 -126.5 -48.5t-43.5 -125.5q0 -82 41.5 -120t128.5 -38q105 0 188 54z" />
    <glyph glyph-name="colon" unicode=":" horiz-adv-x="563" 
d="M86 172q0 82 56 140.5t137 58.5q82 0 140 -58.5t58 -140.5q0 -81 -58 -136.5t-140 -55.5t-137.5 55t-55.5 137zM86 844q0 82 56 140t137 58q82 0 140 -58t58 -140q0 -81 -58 -137t-140 -56t-137.5 55.5t-55.5 137.5z" />
    <glyph glyph-name="semicolon" unicode=";" horiz-adv-x="571" 
d="M100 844q0 82 56 140t137 58q82 0 140.5 -58t58.5 -140q0 -81 -58.5 -137t-140.5 -56t-137.5 55.5t-55.5 137.5zM-20 -401l178 749h293v-37l-179 -712h-292z" />
    <glyph glyph-name="less" unicode="&#x3c;" horiz-adv-x="999" 
d="M10 442v316l938 512v-373l-542 -295v-2l542 -297v-373z" />
    <glyph glyph-name="equal" unicode="=" horiz-adv-x="1003" 
d="M68 281v297h868v-297h-868zM68 715v297h868v-297h-868z" />
    <glyph glyph-name="greater" unicode="&#x3e;" horiz-adv-x="999" 
d="M51 303l543 297v2l-543 295v373l940 -512v-316l-940 -512v373z" />
    <glyph glyph-name="question" unicode="?" horiz-adv-x="800" 
d="M109 172q0 84 55.5 141.5t136.5 57.5q82 0 140.5 -58t58.5 -141q0 -81 -58.5 -136.5t-140.5 -55.5t-137 55t-55 137zM47 1075l2 314q58 26 143 45.5t168 19.5q212 0 320 -97t108 -249q0 -52 -11.5 -99t-31.5 -82.5t-46 -69t-54.5 -59t-58 -51.5t-56.5 -47t-49 -46
t-36 -47.5t-18 -51.5t5 -59h-285q-14 56 1 112t48.5 99.5t76 89.5t81 83.5t64.5 80t26 79.5q0 48 -35 75.5t-106 27.5q-126 0 -256 -68z" />
    <glyph glyph-name="at" unicode="@" horiz-adv-x="2111" 
d="M367 473q0 -309 193 -499.5t511 -190.5h96l-16 -281h-102q-210 0 -392 66.5t-315 187.5t-209 300.5t-76 394.5q0 292 134 522.5t368 357.5t526 127q272 0 492 -110.5t347.5 -312t127.5 -455.5q0 -252 -123.5 -408t-339.5 -156q-188 0 -305 113l-6 8q-128 -121 -303 -121
q-185 0 -298.5 132.5t-113.5 330.5q0 196 110.5 329.5t282.5 133.5q125 0 236 -84l6 68h289v-506q0 -154 110 -154q72 0 110 70t38 201q0 291 -177 467t-485 176q-166 0 -302.5 -54.5t-226 -149.5t-138.5 -224t-49 -279zM1186 322v323q-18 18 -58 31.5t-84 13.5
q-88 0 -131 -56.5t-43 -156.5t42.5 -156.5t127.5 -56.5q48 0 86.5 17t59.5 41z" />
    <glyph glyph-name="A" unicode="A" horiz-adv-x="1423" 
d="M342 0h-342v37l549 1397h321l553 -1397v-37h-342l-92 242h-559zM524 514h371l-182 496h-4z" />
    <glyph glyph-name="B" unicode="B" horiz-adv-x="1298" 
d="M719 0h-596v1434h553q244 0 382 -106t138 -288q0 -90 -36.5 -159t-86 -104.5t-108.5 -51.5q44 -7 90.5 -30t91.5 -63t73.5 -106.5t28.5 -146.5q0 -175 -135.5 -277t-394.5 -102zM467 571v-276h221q101 0 154 28.5t53 100.5q0 74 -55 110.5t-154 36.5h-219zM637 1139h-170
v-273h190q185 0 185 135q0 75 -53 106.5t-152 31.5z" />
    <glyph glyph-name="C" unicode="C" horiz-adv-x="1290" 
d="M1198 406v-340q-103 -47 -197 -68t-221 -21q-204 0 -370.5 98t-259.5 267t-93 375q0 154 55 290.5t150 235t230 156t288 57.5q131 0 229.5 -23.5t200.5 -78.5l-39 -324q-82 57 -161 83t-174 26q-102 0 -184.5 -35.5t-134.5 -95.5t-79.5 -135t-27.5 -156t27.5 -156
t79.5 -135t134.5 -95.5t184.5 -35.5q112 0 194.5 29t167.5 82z" />
    <glyph glyph-name="D" unicode="D" horiz-adv-x="1495" 
d="M123 1434h612q150 0 281 -56t223 -152.5t144.5 -228.5t52.5 -280t-52.5 -280t-144.5 -228.5t-223 -152.5t-281 -56h-612v1434zM465 315h250q87 0 158.5 34.5t117 92t70 128.5t24.5 147q0 75 -24.5 146t-70 128t-117 92t-158.5 35h-250v-803z" />
    <glyph glyph-name="E" unicode="E" horiz-adv-x="1210" 
d="M123 0v1434h995v-312h-651v-250h618v-305h-618v-256h670l-21 -311h-993z" />
    <glyph glyph-name="F" unicode="F" horiz-adv-x="1150" 
d="M467 0h-344v1434h975l-19 -312h-612v-282h604v-305h-604v-535z" />
    <glyph glyph-name="G" unicode="G" horiz-adv-x="1398" 
d="M1296 1350l-36 -338q-115 69 -208.5 98t-209.5 29q-107 0 -193 -39.5t-137 -102.5t-77.5 -135t-26.5 -145q0 -106 48.5 -201.5t144.5 -158t218 -62.5q102 0 162 22v213h-205v289h543v-749q-142 -50 -261 -71.5t-270 -21.5q-153 0 -289.5 59.5t-232.5 159.5t-152.5 236.5
t-56.5 284.5q0 149 57.5 284.5t158 236t247 159.5t316.5 59q142 0 247 -25.5t213 -80.5z" />
    <glyph glyph-name="H" unicode="H" horiz-adv-x="1501" 
d="M467 0h-344v1434h344v-545h569v545h344v-1434h-344v573h-569v-573z" />
    <glyph glyph-name="I" unicode="I" horiz-adv-x="587" 
d="M465 0h-342v1434h342v-1434z" />
    <glyph glyph-name="J" unicode="J" horiz-adv-x="989" 
d="M51 59v314q82 -40 145.5 -58t135.5 -18q117 0 165 49t48 170v918h344v-924q0 -264 -127 -398.5t-379 -134.5q-90 0 -165 19t-167 63z" />
    <glyph glyph-name="K" unicode="K" horiz-adv-x="1374" 
d="M467 0h-344v1434h344v-584h2l494 584h389v-35l-553 -651l559 -711v-37h-395l-494 633h-2v-633z" />
    <glyph glyph-name="L" unicode="L" horiz-adv-x="1105" 
d="M465 1434v-1119h604l-20 -315h-926v1434h342z" />
    <glyph glyph-name="M" unicode="M" horiz-adv-x="1890" 
d="M465 0h-342v1434h405l414 -875h6l414 875h405v-1434h-342v868l-403 -874h-154l-403 874v-868z" />
    <glyph glyph-name="N" unicode="N" horiz-adv-x="1548" 
d="M465 0h-342v1434h285l675 -736v736h344v-1440h-153l-809 864v-858z" />
    <glyph glyph-name="O" unicode="O" horiz-adv-x="1548" 
d="M57 717q0 146 55 281.5t149 236.5t228.5 161t284.5 60t284.5 -60t228.5 -161t149 -236.5t55 -281.5q0 -196 -92.5 -365.5t-258 -272t-364.5 -102.5q-150 0 -284.5 60.5t-229 161t-150 236.5t-55.5 282zM410 717q0 -75 24.5 -149t68.5 -135.5t115 -99.5t156 -38t156.5 38
t116.5 99.5t69.5 135.5t24.5 149t-24.5 149t-69.5 135.5t-116.5 99.5t-156.5 38t-156 -38t-115 -99.5t-68.5 -135.5t-24.5 -149z" />
    <glyph glyph-name="P" unicode="P" horiz-adv-x="1234" 
d="M465 496v-496h-342v1434h561q132 0 233.5 -39t161 -106t89.5 -149.5t30 -176.5q0 -74 -18 -141.5t-58 -127.5t-99 -103.5t-146 -69t-193 -25.5h-219zM631 1141h-164l-2 -357h166q108 0 161.5 48t53.5 131t-52.5 130.5t-162.5 47.5z" />
    <glyph glyph-name="Q" unicode="Q" horiz-adv-x="1548" 
d="M57 717q0 146 55 281.5t149 236.5t228.5 161t284.5 60q120 0 231 -38.5t198 -108t152.5 -161.5t100.5 -203t35 -228q0 -149 -56 -286t-157 -241l168 -219l-287 -182l-133 236q-121 -48 -252 -48q-199 0 -365 102.5t-259 272t-93 365.5zM774 1139q-85 0 -156 -38
t-115 -99.5t-68.5 -135.5t-24.5 -149t24.5 -149t68.5 -135.5t115 -99.5t156 -38q48 0 92 12l-121 215l185 125l137 -180q72 116 72 250q0 75 -25 149t-69.5 135.5t-115.5 99.5t-155 38z" />
    <glyph glyph-name="R" unicode="R" horiz-adv-x="1300" 
d="M123 2v1432h610q133 0 234.5 -37.5t161 -103t89 -146t29.5 -174.5q0 -151 -76 -267t-231 -165l328 -504v-35h-371l-336 510h-96v-510h-342zM680 1141h-215v-338h215q217 0 217 172q0 166 -217 166z" />
    <glyph glyph-name="S" unicode="S" horiz-adv-x="1181" 
d="M1069 1331l-29 -317q-118 73 -215 106t-207 33q-99 0 -145.5 -34t-46.5 -91q0 -29 24 -52t65 -39.5t94 -33t112 -35.5t117.5 -42.5t111.5 -59t94 -80t65 -110.5t24 -146q0 -216 -146 -334.5t-401 -118.5q-261 0 -502 134v317q131 -70 246.5 -109.5t240.5 -39.5
q116 0 170 38.5t54 100.5q0 36 -30.5 63.5t-80 44.5t-112.5 37.5t-129.5 40.5t-129.5 55t-112.5 79t-80 116t-30.5 162q0 192 141.5 316t372.5 124q236 0 465 -125z" />
    <glyph glyph-name="T" unicode="T" horiz-adv-x="1173" 
d="M27 1434h1120l-21 -316h-368v-1118h-344v1118h-387v316z" />
    <glyph glyph-name="U" unicode="U" horiz-adv-x="1370" 
d="M100 541v893h344v-867q0 -130 63 -201t179 -71q115 0 177.5 70.5t62.5 201.5v867h344v-893q0 -262 -158.5 -413t-425.5 -151q-269 0 -427.5 151t-158.5 413z" />
    <glyph glyph-name="V" unicode="V" horiz-adv-x="1402" 
d="M0 1399v35h365l333 -791h7l333 791h365v-35l-625 -1405h-153z" />
    <glyph glyph-name="W" unicode="W" horiz-adv-x="1990" 
d="M485 -6l-485 1405v35h360l242 -713h4l281 713v2h217v-2l280 -713h2l242 713h363v-35l-488 -1405h-151l-357 891h-2l-354 -891h-154z" />
    <glyph glyph-name="X" unicode="X" horiz-adv-x="1382" 
d="M16 0v35l498 690l-477 674v35h366l285 -412h6l285 412h367v-35l-478 -674l496 -690v-35h-367l-303 432h-6l-305 -432h-367z" />
    <glyph glyph-name="Y" unicode="Y" horiz-adv-x="1267" 
d="M463 610l-467 789v35h348l291 -494l291 494h348v-35l-467 -789v-610h-344v610z" />
    <glyph glyph-name="Z" unicode="Z" horiz-adv-x="1265" 
d="M43 0l-2 152l709 966h-670v316h1091v-304l-598 -815h629l-22 -315h-1137z" />
    <glyph glyph-name="bracketleft" unicode="[" horiz-adv-x="638" 
d="M113 -283v1827h499v-301h-184v-1225h184v-301h-499z" />
    <glyph glyph-name="backslash" unicode="\" horiz-adv-x="815" 
d="M-10 1516h317l518 -1688h-317z" />
    <glyph glyph-name="bracketright" unicode="]" horiz-adv-x="638" 
d="M29 18h182v1225h-182v301h499v-1827h-499v301z" />
    <glyph glyph-name="asciicircum" unicode="^" horiz-adv-x="964" 
d="M0 778v37l385 619h195l385 -619v-37h-297l-185 367h-2l-184 -367h-297z" />
    <glyph glyph-name="underscore" unicode="_" horiz-adv-x="1073" 
d="M1010 0v-281h-947v281h947z" />
    <glyph glyph-name="grave" unicode="`" horiz-adv-x="489" 
d="M227 1532l-295 340v37h318l233 -340v-37h-256z" />
    <glyph glyph-name="a" unicode="a" horiz-adv-x="1099" 
d="M362 -20q-150 0 -234.5 78.5t-84.5 215.5q0 72 25 129t67 94t100 61t120 34t132 10q72 0 172 -14v16q0 85 -42 117.5t-144 32.5q-175 0 -301 -72l-16 285q93 38 176.5 57.5t191.5 19.5q247 0 358 -107t111 -316v-621h-334v98q-60 -54 -128 -86t-169 -32zM381 307
q0 -38 29 -59t77 -21q80 0 172 62v104q-85 13 -116 13q-77 0 -119.5 -26.5t-42.5 -72.5z" />
    <glyph glyph-name="b" unicode="b" horiz-adv-x="1241" 
d="M449 0h-336v1565h336v-619q35 33 111.5 65.5t170.5 32.5q142 0 247.5 -73.5t157.5 -192.5t52 -266q0 -146 -51.5 -266t-152.5 -193t-234 -73q-91 0 -161.5 33.5t-139.5 97.5v-111zM449 668v-312q30 -21 46 -31.5t58.5 -25t87.5 -14.5q101 0 155 64t54 163t-54 163
t-157 64q-114 0 -190 -71z" />
    <glyph glyph-name="c" unicode="c" horiz-adv-x="974" 
d="M913 948l-26 -293q-60 32 -88 45.5t-73 26t-89 12.5q-116 0 -181 -64.5t-65 -162.5q0 -99 64.5 -163t179.5 -64q45 0 93.5 13.5t76.5 26t102 48.5v-310q-158 -83 -325 -83q-225 0 -377 154t-152 380q0 148 68 269t188.5 191t268.5 70q89 0 177.5 -26t157.5 -70z" />
    <glyph glyph-name="d" unicode="d" horiz-adv-x="1239" 
d="M494 -20q-101 0 -185 42.5t-139.5 115t-86 169t-30.5 205.5q0 147 52 266t158 192.5t249 73.5q93 0 169.5 -32.5t111.5 -65.5v619h335v-1565h-335v111q-71 -65 -140.5 -98t-158.5 -33zM391 512q0 -99 55 -163t160 -64q106 0 187 61v322q-76 71 -187 71q-105 0 -160 -64
t-55 -163z" />
    <glyph glyph-name="e" unicode="e" horiz-adv-x="1097" 
d="M625 -20q-271 0 -421.5 145.5t-150.5 376.5q0 151 63.5 274t182.5 195.5t272 72.5q211 0 338 -138t127 -390v-96h-645q29 -84 102 -118t185 -34q22 0 43 1t43 4t37 4.5t37.5 7t33.5 8t35 9.5t31 9t34 11t32 10v-254q-172 -98 -379 -98zM381 629h332v4q0 65 -41 113.5
t-115 48.5q-65 0 -112 -42t-64 -124z" />
    <glyph glyph-name="f" unicode="f" horiz-adv-x="813" 
d="M25 1024h133v150q0 411 403 411q71 0 184 -22v-301q-66 14 -122 14q-131 0 -131 -113v-139h262l-13 -287h-249v-735h-334v735h-133v287z" />
    <glyph glyph-name="g" unicode="g" horiz-adv-x="1241" 
d="M53 512q0 146 51.5 266.5t153 194.5t234.5 74q89 0 159 -34.5t142 -99.5v111h335v-942q0 -281 -139 -438.5t-405 -157.5q-111 0 -236 24.5t-205 69.5l-26 314q114 -57 190 -80t178 -23q156 0 232 66t76 186v35q-38 -33 -113.5 -65.5t-167.5 -32.5q-143 0 -249 73.5
t-158 192.5t-52 266zM391 512q0 -100 54 -163.5t159 -63.5q108 0 189 61v322q-26 26 -76 48.5t-113 22.5q-105 0 -159 -63.5t-54 -163.5z" />
    <glyph glyph-name="h" unicode="h" 
d="M113 0v1565h336v-670q62 64 154 106.5t198 42.5q309 0 309 -393v-651h-336v569q0 90 -23.5 130t-84.5 40q-58 0 -116 -32.5t-101 -79.5v-627h-336z" />
    <glyph glyph-name="i" unicode="i" horiz-adv-x="559" 
d="M446 0h-333v1024h333v-1024zM80 1364q0 83 57.5 143t143.5 60q81 0 139.5 -60.5t58.5 -142.5q0 -85 -57.5 -141t-140.5 -56q-88 0 -144.5 55.5t-56.5 141.5z" />
    <glyph glyph-name="j" unicode="j" horiz-adv-x="559" 
d="M166 -526l-201 186q38 33 59.5 55.5t45 58t33.5 80t10 103.5v1067h333v-1069q0 -171 -71 -284.5t-209 -196.5zM80 1364q0 83 57.5 143t143.5 60q81 0 139.5 -60.5t58.5 -142.5q0 -85 -57.5 -141t-140.5 -56q-88 0 -144.5 55.5t-56.5 141.5z" />
    <glyph glyph-name="k" unicode="k" horiz-adv-x="1153" 
d="M446 0h-333v1565h333v-883h7l313 342h358v-37l-403 -438l422 -512v-37h-375l-315 399h-7v-399z" />
    <glyph glyph-name="l" unicode="l" horiz-adv-x="559" 
d="M449 0h-336v1565h336v-1565z" />
    <glyph glyph-name="m" unicode="m" horiz-adv-x="1826" 
d="M113 0v1024h336v-145q60 72 148.5 118.5t197.5 46.5q190 0 258 -170h4q21 24 53.5 49.5t81 54.5t113 47.5t131.5 18.5q156 0 222 -100.5t66 -292.5v-651h-335v573q0 93 -19.5 129.5t-73.5 36.5q-61 0 -118 -35t-93 -83v-621h-335v573q0 94 -18.5 130t-72.5 36
q-109 0 -210 -118v-621h-336z" />
    <glyph glyph-name="n" unicode="n" 
d="M113 0v1024h336v-147q58 72 150 119.5t204 47.5q307 0 307 -393v-651h-336v575q0 88 -26.5 126t-85.5 38q-62 0 -118 -34.5t-95 -83.5v-621h-336z" />
    <glyph glyph-name="o" unicode="o" horiz-adv-x="1177" 
d="M51 512q0 144 67.5 265.5t191.5 194t280 72.5q155 0 278.5 -72.5t190.5 -194t67 -265.5t-67 -265.5t-190.5 -194t-278.5 -72.5q-156 0 -280 72.5t-191.5 194t-67.5 265.5zM389 512q0 -93 54.5 -160t146.5 -67q91 0 146 67t55 160q0 94 -54.5 160.5t-146.5 66.5
q-93 0 -147 -66.5t-54 -160.5z" />
    <glyph glyph-name="p" unicode="p" horiz-adv-x="1239" 
d="M113 -498v1522h336v-111q72 65 141.5 98t159.5 33q133 0 234 -73t152.5 -193t51.5 -266q0 -147 -52 -266t-157.5 -192.5t-247.5 -73.5q-92 0 -168.5 32.5t-113.5 65.5v-576h-336zM449 672v-312q86 -75 194 -75q100 0 153.5 64t53.5 163t-54 163t-157 64q-107 0 -190 -67z
" />
    <glyph glyph-name="q" unicode="q" horiz-adv-x="1239" 
d="M510 -20q-142 0 -247.5 73.5t-157.5 192.5t-52 266q0 109 30.5 205.5t86 169t139 115t183.5 42.5q91 0 161.5 -33.5t139.5 -97.5v111h335v-1522h-335v576q-34 -32 -111.5 -65t-171.5 -33zM391 512q0 -99 53.5 -163t153.5 -64q109 0 195 75v314q-81 65 -191 65
q-103 0 -157 -64t-54 -163z" />
    <glyph glyph-name="r" unicode="r" horiz-adv-x="856" 
d="M113 0v1024h336v-174q115 194 288 194q74 0 109 -14l-29 -344q-81 31 -123 31q-132 0 -245 -164v-553h-336z" />
    <glyph glyph-name="s" unicode="s" horiz-adv-x="911" 
d="M68 78v278q192 -105 348 -108q114 0 114 55q0 25 -25.5 44t-66 32.5t-90 28.5t-99 38.5t-90 55.5t-66 87t-25.5 126q0 155 110.5 242t294.5 87q186 0 328 -77l-23 -269q-135 78 -268 78q-50 0 -80.5 -13t-30.5 -38q0 -21 25.5 -37t66.5 -28t90 -27t98.5 -39t90.5 -57.5
t66.5 -90t25.5 -129.5q0 -158 -110.5 -247.5t-298.5 -89.5q-107 0 -210 28t-175 70z" />
    <glyph glyph-name="t" unicode="t" horiz-adv-x="776" 
d="M27 1024h131l2 293h323v-293h224l-19 -287h-205v-381q0 -41 20 -56t64 -15q53 0 133 18v-283q-109 -40 -221 -40q-329 0 -329 311v446h-123v287z" />
    <glyph glyph-name="u" unicode="u" 
d="M104 1024h334v-573q0 -90 27 -129t88 -39q62 0 118 34.5t95 83.5v623h336v-1024h-336v147q-60 -72 -151 -119.5t-203 -47.5q-308 0 -308 393v651z" />
    <glyph glyph-name="v" unicode="v" horiz-adv-x="1095" 
d="M475 -12l-483 1001v35h348l207 -461h4l207 461h346v-35l-481 -1001h-148z" />
    <glyph glyph-name="w" unicode="w" horiz-adv-x="1542" 
d="M375 -12l-377 1001v35h334l149 -422h2l172 422h232l172 -422h2l149 422h334v-35l-375 -1001h-147l-248 577h-4l-250 -577h-145z" />
    <glyph glyph-name="x" unicode="x" horiz-adv-x="1075" 
d="M356 0h-344v35l338 483l-330 471v35h345l172 -270l174 270h344v-35l-330 -471l338 -481v-37h-344l-182 283z" />
    <glyph glyph-name="y" unicode="y" horiz-adv-x="1105" 
d="M-8 1024h348l211 -555h4l211 555h348v-35l-485 -1186q-64 -156 -165 -236.5t-263 -80.5q-19 0 -51 4l-127 305q39 -8 108 -8q74 0 113 28.5t63 86.5l68 161l-383 926v35z" />
    <glyph glyph-name="z" unicode="z" horiz-adv-x="935" 
d="M883 293l-15 -293h-817v147l404 586h-387v291h798v-225l-350 -506h367z" />
    <glyph glyph-name="braceleft" unicode="{" horiz-adv-x="704" 
d="M8 795q94 15 135 58.5t41 131.5v221q0 165 84.5 251.5t251.5 86.5h158v-301h-80q-52 0 -81.5 -27t-29.5 -94v-233q0 -198 -200 -254v-2q200 -56 200 -254v-240q0 -67 29.5 -94t81.5 -27h80v-301h-158q-167 0 -251.5 86.5t-84.5 249.5v232q0 87 -41.5 130t-134.5 58v322z
" />
    <glyph glyph-name="bar" unicode="|" horiz-adv-x="559" 
d="M438 -283h-315v1827h315v-1827z" />
    <glyph glyph-name="braceright" unicode="}" horiz-adv-x="714" 
d="M29 1243v301h166q167 0 251 -86.5t84 -249.5v-223q0 -88 41.5 -131.5t135.5 -58.5v-322q-94 -15 -135.5 -58t-41.5 -130v-232q0 -163 -84 -249.5t-251 -86.5h-166v301h88q52 0 81 27t29 94v240q0 197 201 254v2q-201 57 -201 254v233q0 67 -29 94t-81 27h-88z" />
    <glyph glyph-name="asciitilde" unicode="~" horiz-adv-x="784" 
d="M375 614l-80 48q-32 16 -49 16q-23 0 -26.5 -24.5t11.5 -90.5h-208q-31 168 23.5 258t172.5 90q89 0 193 -65l77 -47q34 -17 50 -17t22.5 10.5t5 35.5t-11.5 69h209q31 -168 -24 -258t-173 -90q-92 0 -192 65z" />
    <glyph glyph-name="exclamdown" unicode="&#xa1;" horiz-adv-x="620" 
d="M492 -498h-359v174l55 775h244l60 -775v-174zM115 772q0 83 55 139t137 56q84 0 142.5 -56t58.5 -139q0 -82 -59 -139.5t-142 -57.5q-81 0 -136.5 57.5t-55.5 139.5z" />
    <glyph glyph-name="cent" unicode="&#xa2;" horiz-adv-x="940" 
d="M389 209q-163 50 -264.5 189.5t-101.5 320.5q0 182 101 321t265 189v209h285v-201q120 -25 207 -84l-27 -291q-59 31 -91 45.5t-79.5 26.5t-99.5 12q-99 0 -161.5 -64.5t-62.5 -162.5q0 -99 62 -163t162 -64q54 0 90 8q17 3 34 8.5t29.5 10t33.5 13.5t30.5 13.5t36 17
t36.5 17.5v-310q-94 -50 -200 -71v-199h-285v209z" />
    <glyph glyph-name="sterling" unicode="&#xa3;" horiz-adv-x="983" 
d="M106 0l-53 213q134 182 144 338h-129v280h75q-25 64 -35.5 94t-23 85t-12.5 102q0 152 112 248t295 96q212 0 420 -96l-35 -320q-95 57 -165.5 83t-157.5 26q-135 0 -135 -121q0 -60 38 -197h359v-280h-307q0 -139 -68 -256h514l-8 -295h-828z" />
    <glyph glyph-name="currency" unicode="&#xa4;" horiz-adv-x="905" 
d="M745 561l146 -147l-117 -121l-139 139q-77 -49 -182 -49q-108 0 -181 49l-139 -139l-115 121l144 145q-27 69 -27 141q0 75 29 144l-146 145l115 121l137 -139q73 49 183 49q103 0 184 -49l137 139l117 -121l-148 -147q29 -66 29 -142q0 -70 -27 -139zM307 700
q0 -64 40.5 -104.5t105.5 -40.5q66 0 106.5 40t40.5 105q0 67 -40.5 107.5t-106.5 40.5q-65 0 -105.5 -40.5t-40.5 -107.5z" />
    <glyph glyph-name="yen" unicode="&#xa5;" horiz-adv-x="1269" 
d="M436 750l-440 649v35h348l291 -441l293 441h346v-35l-440 -649h270v-187h-297v-119h297v-186h-297v-258h-344v258h-297v186h297v119h-297v187h270z" />
    <glyph glyph-name="brokenbar" unicode="&#xa6;" horiz-adv-x="544" 
d="M123 -283v856h301v-856h-301zM123 729v815h301v-815h-301z" />
    <glyph glyph-name="section" unicode="&#xa7;" horiz-adv-x="1181" 
d="M84 -381v318q130 -69 246 -108.5t241 -39.5q117 0 172.5 38t55.5 99q0 36 -30.5 63.5t-80.5 44.5t-113.5 37.5t-130 40.5t-130 55t-113.5 79t-80.5 116t-30.5 162q0 145 88 242q-88 98 -88 250q0 192 141.5 316t372.5 124q236 0 465 -125l-29 -317q-118 73 -215 106
t-207 33q-99 0 -146.5 -34.5t-47.5 -90.5q0 -29 24.5 -52t65.5 -39.5t94 -33t111.5 -35.5t117.5 -42.5t112 -59t94 -80t65.5 -110.5t24.5 -146q0 -154 -84 -244q84 -97 84 -247q0 -216 -146 -334.5t-401 -118.5q-263 0 -502 133zM451 612q-27 -34 -27 -77q0 -22 9.5 -40
t30 -33t43 -26.5t57.5 -23.5t64.5 -21t73 -22t74.5 -23q23 29 23 74q0 27 -15 50t-35.5 37.5t-59.5 30.5t-69 25t-84 24t-85 25z" />
    <glyph glyph-name="dieresis" unicode="&#xa8;" horiz-adv-x="788" 
d="M428 1712q0 72 52 125t124 53t124 -53t52 -125q0 -73 -51.5 -123.5t-124.5 -50.5t-124.5 50.5t-51.5 123.5zM8 1712q0 72 52 125t124 53q70 0 122 -53t52 -125q0 -73 -51.5 -123.5t-122.5 -50.5q-73 0 -124.5 50.5t-51.5 123.5z" />
    <glyph glyph-name="copyright" unicode="&#xa9;" horiz-adv-x="1589" 
d="M57 717q0 150 58.5 286.5t157 235.5t235.5 157t287 58t286.5 -58t235.5 -157t157 -235.5t58 -286.5t-58 -286.5t-157 -235.5t-235.5 -157t-286.5 -58t-287 58t-235.5 157t-157 235.5t-58.5 286.5zM227 717q0 -153 76.5 -283.5t207.5 -207t284 -76.5t283 76.5t206 207
t76 283.5t-76 283t-206 206t-283 76t-284 -76t-207.5 -206t-76.5 -283zM987 604v-172q-75 -37 -180 -37q-135 0 -224 94t-89 230q0 137 89 231t224 94q101 0 186 -43l-16 -167q-73 47 -150 47q-81 0 -123 -45.5t-42 -116.5t42 -115.5t123 -44.5q87 0 160 45z" />
    <glyph glyph-name="ordfeminine" unicode="&#xaa;" horiz-adv-x="632" 
d="M23 1014q0 95 74.5 139.5t185.5 44.5q42 0 96 -8v8q0 49 -24.5 67.5t-82.5 18.5q-98 0 -176 -43l-8 170q54 22 104.5 32.5t133.5 10.5q247 0 247 -244v-360h-194v57q-37 -33 -75 -51t-99 -18q-85 0 -133.5 46.5t-48.5 129.5zM303 1081q-84 0 -84 -53q0 -45 55 -45
q48 0 103 35v57q-30 6 -74 6z" />
    <glyph glyph-name="guillemotleft" unicode="&#xab;" horiz-adv-x="1030" 
d="M446 498v67l359 459l235 -141l-258 -351l258 -352l-235 -141zM-33 479v105l346 440l234 -141l-258 -351l258 -352l-236 -141z" />
    <glyph glyph-name="logicalnot" unicode="&#xac;" horiz-adv-x="921" 
d="M6 803h864v-535h-309v238h-555v297z" />
    <glyph glyph-name="uni00AD" unicode="&#xad;" horiz-adv-x="1196" 
d="M1128 504h-1060v299h1060v-299z" />
    <glyph glyph-name="registered" unicode="&#xae;" horiz-adv-x="1589" 
d="M57 717q0 150 58.5 286.5t157 235.5t235.5 157t287 58t286.5 -58t235.5 -157t157 -235.5t58 -286.5t-58 -286.5t-157 -235.5t-235.5 -157t-286.5 -58t-287 58t-235.5 157t-157 235.5t-58.5 286.5zM795 1282q-153 0 -284 -76t-207.5 -206t-76.5 -283t76.5 -283.5
t207.5 -207t284 -76.5t283 76.5t206 207t76 283.5t-76 283t-206 206t-283 76zM555 399v641h272q116 0 174 -58.5t58 -147.5q0 -67 -34 -119.5t-103 -73.5l145 -225v-17h-168l-147 228h-39v-228h-158zM713 903v-139h92q94 0 94 70q0 36 -22 52.5t-72 16.5h-92z" />
    <glyph glyph-name="macron" unicode="&#xaf;" horiz-adv-x="663" 
d="M23 1583v258h618v-258h-618z" />
    <glyph glyph-name="degree" unicode="&#xb0;" horiz-adv-x="729" 
d="M57 1145q0 131 89 221t219 90t218.5 -90t88.5 -221t-88.5 -222.5t-218.5 -91.5t-219 91.5t-89 222.5zM225 1145q0 -59 41 -100t99 -41t98.5 41t40.5 100q0 56 -40.5 97.5t-98.5 41.5t-99 -41.5t-41 -97.5z" />
    <glyph glyph-name="plusminus" unicode="&#xb1;" horiz-adv-x="1034" 
d="M45 713v299h324v323h299v-323h323v-299h-323v-324h-299v324h-324zM45 293h946v-293h-946v293z" />
    <glyph glyph-name="twosuperior" unicode="&#xb2;" horiz-adv-x="851" 
d="M49 756v221q211 93 299 177.5t88 176.5q0 119 -121 119q-104 0 -219 -86v250q136 92 305 92q149 0 227.5 -83.5t78.5 -223.5q0 -218 -207 -383h258l-13 -260h-696z" />
    <glyph glyph-name="threesuperior" unicode="&#xb3;" horiz-adv-x="837" 
d="M717 1497l-131 -176q168 -71 168 -254q0 -146 -97 -238t-264 -92q-85 0 -160.5 23t-123.5 53l-15 260q117 -69 238 -69q151 0 151 88q0 49 -55 81.5t-154 32.5h-14v23l148 198h-299l14 261h594v-191z" />
    <glyph glyph-name="acute" unicode="&#xb4;" horiz-adv-x="450" 
d="M565 1872l-297 -340h-256v37l234 340h319v-37z" />
    <glyph glyph-name="mu" unicode="&#xb5;" horiz-adv-x="1218" 
d="M113 1024h333v-573q0 -90 27 -129t88 -39q62 0 117 34.5t94 83.5v623h336v-1024h-336v147q-57 -69 -144.5 -114t-181.5 -45v-486h-333v1522z" />
    <glyph glyph-name="paragraph" unicode="&#xb6;" horiz-adv-x="1048" 
d="M928 1434v-1475q0 -175 -62 -290.5t-194 -194.5l-201 186q2 2 18 16t20.5 18t19 19t20 22.5t18 24.5t17.5 29.5l13 32.5t11.5 38.5t6.5 42.5t3 50v467h-32q-113 0 -211 32t-173.5 93t-119 159t-43.5 222t43.5 222t120.5 160t178 94t219 32h328z" />
    <glyph glyph-name="periodcentered" unicode="&#xb7;" horiz-adv-x="520" 
d="M63 655q0 82 56 140.5t139 58.5q82 0 140.5 -58.5t58.5 -140.5q0 -81 -58.5 -137.5t-140.5 -56.5q-83 0 -139 56t-56 138z" />
    <glyph glyph-name="cedilla" unicode="&#xb8;" horiz-adv-x="501" 
d="M145 -227l-49 61l45 184h181l-25 -104q98 0 160.5 -47t62.5 -141q0 -112 -78 -176t-213 -64q-114 0 -223 31l-31 207q110 -35 201 -35q71 0 99 11t28 34q0 41 -98 41q-37 0 -60 -2z" />
    <glyph glyph-name="onesuperior" unicode="&#xb9;" horiz-adv-x="829" 
d="M743 752h-657v260h199v352l-195 -57v268l389 113h76v-676h188v-260z" />
    <glyph glyph-name="ordmasculine" unicode="&#xba;" horiz-adv-x="724" 
d="M51 1145q0 128 88.5 217.5t222.5 89.5q136 0 224 -89.5t88 -217.5q0 -129 -88 -219t-224 -90q-134 0 -222.5 90.5t-88.5 218.5zM248 1145q0 -55 30.5 -93t83.5 -38q54 0 85.5 38t31.5 93q0 54 -32 92.5t-85 38.5t-83.5 -38.5t-30.5 -92.5z" />
    <glyph glyph-name="guillemotright" unicode="&#xbb;" horiz-adv-x="1030" 
d="M584 565v-67l-359 -459l-235 141l260 352l-260 351l235 141zM1063 584v-103l-344 -442l-236 141l258 352l-258 351l234 141z" />
    <glyph glyph-name="onequarter" unicode="&#xbc;" horiz-adv-x="1873" 
d="M739 752h-657v260h199v352l-195 -57v268l389 113h76v-676h188v-260zM334 23l930 1402h262v-20l-930 -1409h-262v27zM1063 362l299 574h262l-268 -516h121v168h211l-7 -168h125l-16 -244h-107l5 -176h-236v176h-348z" />
    <glyph glyph-name="onehalf" unicode="&#xbd;" horiz-adv-x="1968" 
d="M1884 0h-696v221q211 93 299 177.5t88 176.5q0 119 -121 119q-99 0 -219 -86v250q141 92 307 92q148 0 225.5 -83.5t77.5 -223.5q0 -218 -207 -383h258zM82 1012h199v350l-195 -55v266l389 115h76v-676h188v-260h-657v260zM334 23l930 1402h260v-20l-930 -1409h-260v27z
" />
    <glyph glyph-name="threequarters" unicode="&#xbe;" horiz-adv-x="1841" 
d="M82 1073q117 -69 237 -69q152 0 152 88q0 49 -55 81.5t-154 32.5h-14v23l147 198h-299l15 261h596v-191l-134 -176q170 -72 170 -254q0 -146 -96.5 -238t-263.5 -92q-85 0 -162 23t-125 53zM297 23l930 1402h262v-20l-930 -1409h-262v27zM1024 362l299 574h264l-268 -516
h119v168h211l-4 -168h124l-16 -244h-106l2 -176h-234v176h-348z" />
    <glyph glyph-name="questiondown" unicode="&#xbf;" horiz-adv-x="798" 
d="M698 772q0 -83 -55 -140t-137 -57t-140.5 57.5t-58.5 139.5q0 83 58.5 139t140.5 56q83 0 137.5 -55.5t54.5 -139.5zM752 -129v-313q-155 -66 -312 -66q-213 0 -320.5 96.5t-107.5 247.5q0 65 18 122t46.5 97t65 78.5t73 66t69.5 59t56 57.5t32 62t-3 73h282
q16 -56 0 -111.5t-48.5 -100t-75 -90.5t-81 -83.5t-64.5 -80t-26 -79.5q0 -48 34.5 -75.5t105.5 -27.5q129 0 256 68z" />
    <glyph glyph-name="Agrave" unicode="&#xc0;" horiz-adv-x="1423" 
d="M0 37l547 1397h323l553 -1397v-37h-342l-92 242h-559l-90 -242h-340v37zM582 1532l-295 340v37h317l234 -340v-37h-256zM707 1010l-185 -496h371l-180 496h-6z" />
    <glyph glyph-name="Aacute" unicode="&#xc1;" horiz-adv-x="1423" 
d="M0 0v37l549 1397h321l553 -1397v-37h-342l-92 242h-559l-88 -242h-342zM580 1532v37l233 340h320v-37l-297 -340h-256zM524 514h371l-182 496h-4z" />
    <glyph glyph-name="Acircumflex" unicode="&#xc2;" horiz-adv-x="1423" 
d="M0 37l549 1397h321l553 -1397v-37h-342l-92 242h-559l-90 -242h-340v37zM598 1532h-240v37l215 340h271l217 -340v-37h-240l-110 190h-4zM522 514h371l-180 496h-6z" />
    <glyph glyph-name="Atilde" unicode="&#xc3;" horiz-adv-x="1423" 
d="M342 0h-342v37l549 1397h321l553 -1397v-37h-342l-92 242h-559zM324 1532q-33 176 23.5 269t180.5 93q101 0 199 -65l84 -49q28 -19 53 -19q16 0 22.5 10.5t4.5 36.5t-14 72h221q31 -176 -26 -269t-181 -93q-101 0 -199 65l-84 49q-29 19 -51 19q-16 0 -22.5 -10.5
t-4.5 -36.5t13 -72h-219zM524 514h371l-182 496h-4z" />
    <glyph glyph-name="Adieresis" unicode="&#xc4;" horiz-adv-x="1423" 
d="M340 0h-340v37l549 1397h321l553 -1397v-37h-342l-92 242h-559zM920 1534q-73 0 -125 50.5t-52 123.5q0 72 52.5 124t124.5 52t124 -52t52 -124q0 -73 -51.5 -123.5t-124.5 -50.5zM324 1710q0 70 52 122t122 52q72 0 124 -51.5t52 -122.5q0 -74 -51.5 -125t-124.5 -51
q-71 0 -122.5 51t-51.5 125zM522 514h371l-180 496h-6z" />
    <glyph glyph-name="Aring" unicode="&#xc5;" horiz-adv-x="1423" 
d="M0 0v37l549 1397h321l553 -1397v-37h-342l-92 242h-559l-88 -242h-342zM711 1475q-103 0 -176.5 71.5t-73.5 175.5q0 103 73.5 175.5t176.5 72.5q100 0 173.5 -73t73.5 -175q0 -103 -73 -175t-174 -72zM709 1010l-185 -496h371l-182 496h-4zM711 1796q-32 0 -52 -21.5
t-20 -54.5q0 -31 20 -52t52 -21t50.5 20.5t18.5 52.5q0 33 -18.5 54.5t-50.5 21.5z" />
    <glyph glyph-name="AE" unicode="&#xc6;" horiz-adv-x="1951" 
d="M0 0v35l688 1399h1172v-312h-652v-250h619v-305h-619v-256h670l-20 -311h-994v242h-403l-121 -242h-340zM592 514h272v537h-4z" />
    <glyph glyph-name="Ccedilla" unicode="&#xc7;" horiz-adv-x="1290" 
d="M57 717q0 154 55 290.5t150 235t230 156t288 57.5q131 0 228 -22t204 -70l-41 -332q-82 56 -159.5 81.5t-175.5 25.5q-102 0 -184.5 -35.5t-134.5 -95.5t-79.5 -135t-27.5 -156t27.5 -156t79.5 -135t134.5 -95.5t184.5 -35.5q113 0 196.5 29t165.5 82v-340
q-163 -78 -352 -86l-25 -66q96 -8 147.5 -58.5t51.5 -138.5q0 -111 -79.5 -171t-215.5 -60q-102 0 -186 25v204q76 -23 153 -26q113 0 113 39q0 45 -129 45h-29l-41 61l62 152q-176 25 -315.5 127t-217.5 260t-78 344z" />
    <glyph glyph-name="Egrave" unicode="&#xc8;" horiz-adv-x="1210" 
d="M123 0v1434h995v-312h-651v-250h618v-305h-618v-254h668l-19 -313h-993zM268 1872v37h318l233 -340v-37h-256z" />
    <glyph glyph-name="Eacute" unicode="&#xc9;" horiz-adv-x="1210" 
d="M121 0v1434h995v-312h-651v-250h618v-305h-618v-254h670l-21 -313h-993zM453 1532v37l233 340h320v-37l-297 -340h-256z" />
    <glyph glyph-name="Ecircumflex" unicode="&#xca;" horiz-adv-x="1210" 
d="M123 0v1434h995v-312h-651v-250h618v-305h-618v-254h668l-19 -313h-993zM274 1532v37l218 340h270l215 -340v-37h-240l-108 190h-4l-111 -190h-240z" />
    <glyph glyph-name="Edieresis" unicode="&#xcb;" horiz-adv-x="1210" 
d="M123 0v1434h995v-312h-653v-250h618v-305h-618v-254h670l-19 -313h-993zM840 1534q-73 0 -124.5 50.5t-51.5 123.5q0 72 52 124t124 52t124 -52t52 -124q0 -73 -51.5 -123.5t-124.5 -50.5zM418 1534q-71 0 -122.5 50.5t-51.5 123.5q0 71 52 123.5t122 52.5
q72 0 124 -52.5t52 -123.5q0 -73 -51.5 -123.5t-124.5 -50.5z" />
    <glyph glyph-name="Igrave" unicode="&#xcc;" horiz-adv-x="587" 
d="M467 0h-344v1434h344v-1434zM176 1532l-297 340v37h320l233 -340v-37h-256z" />
    <glyph glyph-name="Iacute" unicode="&#xcd;" horiz-adv-x="587" 
d="M467 0h-344v1434h344v-1434zM711 1872l-297 -340h-256v37l233 340h320v-37z" />
    <glyph glyph-name="Icircumflex" unicode="&#xce;" horiz-adv-x="587" 
d="M123 1434h344v-1434h-344v1434zM-57 1532v37l215 340h270l215 -340v-37h-240l-108 190h-4l-111 -190h-237z" />
    <glyph glyph-name="Idieresis" unicode="&#xcf;" horiz-adv-x="587" 
d="M467 0h-344v1434h344v-1434zM326 1708q0 72 51 124t123 52q73 0 124.5 -52t51.5 -124q0 -73 -51 -123.5t-125 -50.5q-72 0 -123 50.5t-51 123.5zM-84 1708q0 71 51.5 123.5t122.5 52.5q72 0 124 -52.5t52 -123.5q0 -73 -51.5 -123.5t-124.5 -50.5q-72 0 -123 50.5
t-51 123.5z" />
    <glyph glyph-name="Eth" unicode="&#xd0;" horiz-adv-x="1497" 
d="M-12 612v236h137v586h614q150 0 281 -56t223 -152.5t144.5 -228.5t52.5 -280t-52.5 -280t-144.5 -228.5t-223 -152.5t-281 -56h-614v612h-137zM717 1118h-248v-270h281v-230h-281v-303h248q116 0 203 60t128.5 149.5t41.5 192.5q0 75 -25 146t-70.5 128t-118 92
t-159.5 35z" />
    <glyph glyph-name="Ntilde" unicode="&#xd1;" horiz-adv-x="1548" 
d="M123 0v1434h285l675 -736v736h344v-1440h-153l-807 864v-858h-344zM367 1532q-31 177 25.5 269.5t180.5 92.5q101 0 199 -65l84 -49q24 -19 51 -19q24 0 28 25t-13 94h219q33 -176 -24 -269t-183 -93q-99 0 -197 65l-84 49q-28 19 -53 19q-16 0 -22 -10.5t-4 -36.5
t14 -72h-221z" />
    <glyph glyph-name="Ograve" unicode="&#xd2;" horiz-adv-x="1548" 
d="M57 717q0 146 55 281.5t149 236.5t228.5 161t284.5 60t284.5 -60t228.5 -161t149 -236.5t55 -281.5q0 -195 -92.5 -364.5t-258 -272.5t-364.5 -103q-150 0 -284.5 60.5t-229 161.5t-150 236.5t-55.5 281.5zM410 717q0 -75 24.5 -149t68.5 -135.5t115 -99.5t156 -38
t156.5 38t116.5 99.5t69.5 135.5t24.5 149t-24.5 149t-69.5 135.5t-116.5 99.5t-156.5 38t-156 -38t-115 -99.5t-68.5 -135.5t-24.5 -149zM692 1532l-295 340v37h318l233 -340v-37h-256z" />
    <glyph glyph-name="Oacute" unicode="&#xd3;" horiz-adv-x="1548" 
d="M57 717q0 146 55 281.5t149 236.5t228.5 161t284.5 60q120 0 231 -38.5t198 -108t152.5 -161.5t100.5 -203t35 -228t-35 -228t-100 -203t-152 -161.5t-198.5 -108.5t-231.5 -39t-231.5 39t-198.5 108.5t-152 161.5t-100 203t-35 228zM410 717q0 -75 24.5 -149
t68.5 -135.5t115 -99.5t156 -38q84 0 155 38t115.5 99.5t69.5 135.5t25 149t-25 149t-69.5 135.5t-115.5 99.5t-155 38q-85 0 -156 -38t-115 -99.5t-68.5 -135.5t-24.5 -149zM1157 1872l-295 -340h-256v37l234 340h317v-37z" />
    <glyph glyph-name="Ocircumflex" unicode="&#xd4;" horiz-adv-x="1548" 
d="M776 -23q-150 0 -284.5 60.5t-229 161.5t-150 236.5t-55.5 281.5t55 281.5t149 236.5t228.5 161t284.5 60t284.5 -60t228.5 -161t149 -236.5t55 -281.5q0 -195 -92.5 -364.5t-258 -272.5t-364.5 -103zM774 1139q-85 0 -156 -38t-115 -99.5t-68.5 -135.5t-24.5 -149
t24.5 -149t68.5 -135.5t115 -99.5t156 -38t156.5 38t116.5 99.5t69.5 135.5t24.5 149t-24.5 149t-69.5 135.5t-116.5 99.5t-156.5 38zM664 1532h-240v37l215 340h270l215 -340v-37h-239l-109 190h-4z" />
    <glyph glyph-name="Otilde" unicode="&#xd5;" horiz-adv-x="1548" 
d="M57 717q0 146 55 281.5t149 236.5t228.5 161t284.5 60t284.5 -60t228.5 -161t149 -236.5t55 -281.5q0 -195 -92.5 -364.5t-258 -272.5t-364.5 -103q-150 0 -284.5 60.5t-229 161.5t-150 236.5t-55.5 281.5zM410 717q0 -75 24.5 -149t68.5 -135.5t115 -99.5t156 -38
t156.5 38t116.5 99.5t69.5 135.5t24.5 149t-24.5 149t-69.5 135.5t-116.5 99.5t-156.5 38t-156 -38t-115 -99.5t-68.5 -135.5t-24.5 -149zM793 1829l84 -49q24 -19 51 -19q16 0 22.5 10.5t4.5 36.5t-13 72h219q33 -176 -24 -269t-183 -93q-98 0 -196 65l-84 49
q-28 19 -51 19q-25 0 -28.5 -25t13.5 -94h-219q-33 176 24 269t181 93q101 0 199 -65z" />
    <glyph glyph-name="Odieresis" unicode="&#xd6;" horiz-adv-x="1548" 
d="M57 717q0 146 55 281.5t149 236.5t228.5 161t284.5 60q120 0 231 -38.5t198 -108t152.5 -161.5t100.5 -203t35 -228t-35 -228t-100 -203t-152 -161.5t-198.5 -108.5t-231.5 -39t-231.5 39t-198.5 108.5t-152 161.5t-100 203t-35 228zM410 717q0 -75 24.5 -149
t68.5 -135.5t115 -99.5t156 -38q84 0 155 38t115.5 99.5t69.5 135.5t25 149t-25 149t-69.5 135.5t-115.5 99.5t-155 38q-85 0 -156 -38t-115 -99.5t-68.5 -135.5t-24.5 -149zM809 1712q0 72 51 125t123 53t124 -53t52 -125q0 -73 -51.5 -123.5t-124.5 -50.5q-72 0 -123 50.5
t-51 123.5zM387 1712q0 72 52 125t124 53t124 -53t52 -125q0 -73 -51.5 -123.5t-124.5 -50.5t-124.5 50.5t-51.5 123.5z" />
    <glyph glyph-name="multiply" unicode="&#xd7;" horiz-adv-x="892" 
d="M6 887l211 211l229 -230l230 228l211 -209l-230 -230l230 -229l-211 -211l-230 227l-229 -227l-211 211l230 229z" />
    <glyph glyph-name="Oslash" unicode="&#xd8;" horiz-adv-x="1548" 
d="M219 250q-162 205 -162 467q0 146 55 281t149 236t228.5 161.5t284.5 60.5q216 0 397 -125l129 146l158 -131l-135 -154q80 -100 124 -222.5t44 -252.5q0 -146 -55 -282t-149 -236.5t-228.5 -161t-284.5 -60.5q-227 0 -405 129l-107 -120l-160 133zM1090 926l-504 -574
q83 -57 188 -57q84 0 155 38t115.5 99t69.5 135t25 150q0 111 -49 209zM453 516l501 567q-83 54 -180 54q-68 0 -128 -24.5t-102.5 -66.5t-73 -96t-45.5 -113.5t-15 -119.5q0 -108 43 -201z" />
    <glyph glyph-name="Ugrave" unicode="&#xd9;" horiz-adv-x="1370" 
d="M100 541v893h344v-867q0 -130 63 -201t179 -71q115 0 177.5 70.5t62.5 201.5v867h344v-893q0 -261 -158.5 -412.5t-425.5 -151.5q-268 0 -427 151.5t-159 412.5zM309 1909h320l233 -340v-37h-256l-297 340v37z" />
    <glyph glyph-name="Uacute" unicode="&#xda;" horiz-adv-x="1370" 
d="M686 -23q-268 0 -427 151.5t-159 412.5v893h344v-867q0 -130 63 -201t179 -71q115 0 177.5 70.5t62.5 201.5v867h342v-893q0 -261 -157.5 -412.5t-424.5 -151.5zM508 1569l233 340h320v-37l-297 -340h-256v37z" />
    <glyph glyph-name="Ucircumflex" unicode="&#xdb;" horiz-adv-x="1370" 
d="M100 1434h344v-867q0 -130 63 -201t179 -71q115 0 177.5 70.5t62.5 201.5v867h342v-893q0 -261 -157.5 -412.5t-424.5 -151.5q-268 0 -427 151.5t-159 412.5v893zM573 1532h-237v37l215 340h270l215 -340v-37h-239l-109 190h-4z" />
    <glyph glyph-name="Udieresis" unicode="&#xdc;" horiz-adv-x="1370" 
d="M100 541v893h344v-867q0 -130 63 -201t179 -71q115 0 177.5 70.5t62.5 201.5v867h342v-893q0 -261 -157.5 -412.5t-424.5 -151.5q-268 0 -427 151.5t-159 412.5zM721 1708q0 72 51 124t123 52q73 0 124.5 -52t51.5 -124q0 -73 -51 -123.5t-125 -50.5q-72 0 -123 50.5
t-51 123.5zM475 1534q-72 0 -123 50.5t-51 123.5q0 71 51.5 123.5t122.5 52.5q72 0 124 -52.5t52 -123.5q0 -73 -51.5 -123.5t-124.5 -50.5z" />
    <glyph glyph-name="Yacute" unicode="&#xdd;" horiz-adv-x="1267" 
d="M463 610l-467 789v35h348l291 -494l291 494h348v-35l-467 -789v-610h-344v610zM469 1569l231 340h320v-37l-297 -340h-254v37z" />
    <glyph glyph-name="Thorn" unicode="&#xde;" horiz-adv-x="1224" 
d="M123 1436h344v-256h213q132 0 233.5 -37t161.5 -101.5t89.5 -144.5t29.5 -174t-29.5 -173.5t-89.5 -143t-161.5 -100t-233.5 -36.5h-213v-270h-344v1436zM627 885h-160v-332h160q215 0 215 170q0 83 -50.5 122.5t-164.5 39.5z" />
    <glyph glyph-name="germandbls" unicode="&#xdf;" horiz-adv-x="1302" 
d="M655 1456q70 0 233.5 -11t282.5 -11v-293l-219 -293q299 -115 299 -424q0 -96 -25 -174.5t-76.5 -141t-139.5 -97t-207 -34.5t-223 35l-19 318q87 -33 166 -33q94 0 134 37.5t40 130.5q0 95 -76.5 158t-203.5 63h-13v121l232 315q-23 1 -77 4.5t-81 3.5
q-128 0 -174.5 -45t-46.5 -167v-918h-344v924q0 266 132 399t406 133z" />
    <glyph glyph-name="agrave" unicode="&#xe0;" horiz-adv-x="1099" 
d="M43 274q0 72 25 129t67 94t100 61t120 34t132 10q72 0 172 -14v16q0 84 -42.5 117t-145.5 33q-173 0 -299 -72l-16 287q96 37 178 56t190 19q246 0 357.5 -108t111.5 -313v-623h-334v100q-59 -55 -127.5 -87.5t-169.5 -32.5q-150 0 -234.5 79t-84.5 215zM170 1563h319
l234 -342v-37h-256l-297 342v37zM543 406q-78 0 -120 -25.5t-42 -71.5q0 -39 29 -60.5t77 -21.5q80 0 172 62v104q-63 13 -116 13z" />
    <glyph glyph-name="aacute" unicode="&#xe1;" horiz-adv-x="1099" 
d="M362 -20q-150 0 -234.5 79t-84.5 215q0 72 25 129t67 94t100 61t120 34t132 10q72 0 172 -14v16q0 84 -42.5 117t-145.5 33q-173 0 -299 -72l-16 287q96 37 178 56t190 19q246 0 357.5 -108t111.5 -313v-623h-334v100q-59 -55 -127.5 -87.5t-169.5 -32.5zM633 1184h-256
v37l233 342h318v-37zM543 406q-78 0 -120 -25.5t-42 -71.5q0 -39 29 -60.5t77 -21.5q80 0 172 62v104q-63 13 -116 13z" />
    <glyph glyph-name="acircumflex" unicode="&#xe2;" horiz-adv-x="1099" 
d="M362 -20q-150 0 -234.5 79t-84.5 215q0 72 25 129t67 94t100 61t120 34t132 10q72 0 172 -14v16q0 84 -42.5 117t-145.5 33q-173 0 -299 -72l-16 287q96 37 178 56t190 19q246 0 357.5 -108t111.5 -313v-623h-334v100q-59 -55 -127.5 -87.5t-169.5 -32.5zM434 1163h-239
v37l229 363h246l227 -363v-37h-240l-108 191h-4zM543 406q-78 0 -120 -25.5t-42 -71.5q0 -39 29 -60.5t77 -21.5q80 0 172 62v104q-63 13 -116 13z" />
    <glyph glyph-name="atilde" unicode="&#xe3;" horiz-adv-x="1099" 
d="M43 274q0 72 25 129t67 94t100 61t120 34t132 10q72 0 172 -14v16q0 84 -42.5 117t-145.5 33q-173 0 -299 -72l-16 287q96 37 178 56t190 19q246 0 357.5 -108t111.5 -313v-623h-334v100q-59 -55 -127.5 -87.5t-169.5 -32.5q-150 0 -234.5 79t-84.5 215zM160 1198
q-33 174 22.5 269.5t169.5 95.5q37 0 75 -13t63.5 -27t72.5 -44l47 -31q24 -18 52 -18q27 0 31 23t-13 91h221q31 -174 -24 -268t-168 -94q-37 0 -75 12.5t-63 26t-73 43.5l-47 30q-28 21 -52 21q-27 0 -32 -24.5t12 -92.5h-219zM381 309q0 -39 29 -60.5t77 -21.5
q80 0 172 62v104q-63 13 -116 13q-78 0 -120 -25.5t-42 -71.5z" />
    <glyph glyph-name="adieresis" unicode="&#xe4;" horiz-adv-x="1099" 
d="M362 -20q-150 0 -234.5 79t-84.5 215q0 72 25 129t67 94t100 61t120 34t132 10q72 0 172 -14v16q0 84 -42.5 117t-145.5 33q-173 0 -299 -72l-16 287q96 37 178 56t190 19q246 0 357.5 -108t111.5 -313v-623h-334v100q-59 -55 -127.5 -87.5t-169.5 -32.5zM330 1214
q-72 0 -123 51t-51 124q0 72 51 125t123 53t124 -53t52 -125q0 -73 -52 -124t-124 -51zM750 1214q-71 0 -123 51t-52 124q0 72 52 125t123 53q73 0 124.5 -52.5t51.5 -125.5t-51 -124t-125 -51zM381 309q0 -39 29 -60.5t77 -21.5q80 0 172 62v104q-63 13 -116 13
q-78 0 -120 -25.5t-42 -71.5z" />
    <glyph glyph-name="aring" unicode="&#xe5;" horiz-adv-x="1099" 
d="M362 -20q-150 0 -234.5 79t-84.5 215q0 72 25 129t67 94t100 61t120 34t132 10q72 0 172 -14v16q0 84 -42.5 117t-145.5 33q-173 0 -299 -72l-16 287q96 37 178 56t190 19q246 0 357.5 -108t111.5 -313v-623h-334v100q-59 -55 -127.5 -87.5t-169.5 -32.5zM295 1382
q0 103 72.5 174.5t175.5 71.5q102 0 176 -72t74 -174q0 -103 -74 -175t-176 -72q-103 0 -175.5 71.5t-72.5 175.5zM543 406q-78 0 -120 -25.5t-42 -71.5q0 -39 29 -60.5t77 -21.5q80 0 172 62v104q-63 13 -116 13zM473 1380q0 -31 20 -52t50 -21q33 0 52 20.5t19 52.5
t-19 53t-52 21q-30 0 -50 -21.5t-20 -52.5z" />
    <glyph glyph-name="ae" unicode="&#xe6;" horiz-adv-x="1720" 
d="M436 -20q-196 0 -294.5 77.5t-98.5 218.5q0 71 25 128t67 93.5t100 60.5t120 34t132 10q72 0 172 -14v16q0 84 -42.5 117t-145.5 33q-173 0 -299 -72l-16 287q66 26 106.5 39t104.5 24.5t131 11.5q232 0 360 -118q134 118 336 118q210 0 336.5 -138.5t126.5 -389.5v-96
h-645q50 -152 254 -152q80 0 151.5 10.5t105.5 20t101 31.5l2 -252q-169 -98 -379 -98q-252 0 -403 129q-101 -65 -193.5 -97t-214.5 -32zM1001 629h332v4q0 66 -40 114t-113 48q-67 0 -114.5 -42t-64.5 -124zM545 403q-79 0 -121.5 -24.5t-42.5 -69.5q0 -82 119 -82
q109 0 198 76l-26 90q-65 10 -127 10z" />
    <glyph glyph-name="ccedilla" unicode="&#xe7;" horiz-adv-x="974" 
d="M481 -12q-188 34 -308 180.5t-120 345.5q0 147 67.5 268.5t187.5 191.5t267 70q90 0 179 -26t157 -70l-24 -293q-62 33 -89.5 45.5t-73 25.5t-89.5 13q-116 0 -180 -64.5t-64 -162.5q0 -99 64 -163t180 -64q45 0 93.5 13.5t76.5 26t102 48.5l-2 -310q-107 -60 -243 -77
l-27 -72q96 -8 147.5 -58.5t51.5 -138.5q0 -110 -80.5 -170.5t-216.5 -60.5q-103 0 -187 25v204q76 -23 154 -26q112 0 112 39q0 45 -129 45h-28l-39 61z" />
    <glyph glyph-name="egrave" unicode="&#xe8;" horiz-adv-x="1097" 
d="M625 -20q-271 0 -421.5 145.5t-150.5 376.5q0 151 63.5 274t182.5 195.5t272 72.5q211 0 338 -138t127 -390v-96h-645q29 -84 102 -118t185 -34q22 0 43 1t43 4t37 4.5t37.5 7t33.5 8t35 9.5t31 9t34 11t32 10v-254q-172 -98 -379 -98zM500 1184l-295 342v37h317
l234 -342v-37h-256zM381 629h332v4q0 65 -41 113.5t-115 48.5q-65 0 -112 -42t-64 -124z" />
    <glyph glyph-name="eacute" unicode="&#xe9;" horiz-adv-x="1097" 
d="M53 502q0 151 63.5 274t182.5 195.5t272 72.5q211 0 338 -138t127 -390v-96h-645q29 -84 102 -118t185 -34q22 0 43 1t43 4t37 4.5t37.5 7t33.5 8t35 9.5t31 9t34 11t32 10v-254q-172 -98 -379 -98q-271 0 -421.5 145.5t-150.5 376.5zM401 1184v37l234 342h319v-37
l-297 -342h-256zM381 629h332v4q0 65 -41 113.5t-115 48.5q-65 0 -112 -42t-64 -124z" />
    <glyph glyph-name="ecircumflex" unicode="&#xea;" horiz-adv-x="1097" 
d="M53 502q0 151 63.5 274t181.5 195.5t269 72.5q213 0 341 -140t128 -388v-96h-645q29 -84 102 -118t185 -34q22 0 43 1t43 4t37 4.5t37.5 7t33.5 8t35 9.5t31 9t34 11t32 10v-254q-172 -98 -379 -98q-271 0 -421.5 145.5t-150.5 376.5zM207 1200l229 363h246l227 -363v-37
h-239l-109 191h-4l-111 -191h-239v37zM381 629h332v4q0 65 -41 113.5t-115 48.5q-65 0 -112 -42t-64 -124z" />
    <glyph glyph-name="edieresis" unicode="&#xeb;" horiz-adv-x="1097" 
d="M625 -20q-271 0 -421.5 145.5t-150.5 376.5q0 151 63.5 274t182.5 195.5t272 72.5q211 0 338 -138t127 -390v-96h-645q29 -84 102 -118t185 -34q22 0 43 1t43 4t37 4.5t37.5 7t33.5 8t35 9.5t31 9t34 11t32 10v-254q-172 -98 -379 -98zM352 1214q-72 0 -124 51t-52 124
q0 72 52 125t124 53t124 -53t52 -125q0 -73 -52 -124t-124 -51zM772 1214q-72 0 -123 51t-51 124q0 72 51 125t123 53t124 -53t52 -125q0 -73 -52 -124t-124 -51zM381 629h332v4q0 65 -41 113.5t-115 48.5q-65 0 -112 -42t-64 -124z" />
    <glyph glyph-name="igrave" unicode="&#xec;" horiz-adv-x="557" 
d="M446 0h-335v1024h335v-1024zM164 1184l-254 295v84h276l234 -342v-37h-256z" />
    <glyph glyph-name="iacute" unicode="&#xed;" horiz-adv-x="559" 
d="M446 0h-335v1024h335v-1024zM637 1464l-244 -280h-256v37l234 342h266v-99z" />
    <glyph glyph-name="icircumflex" unicode="&#xee;" horiz-adv-x="559" 
d="M111 1024h335v-1024h-335v1024zM-72 1163v37l230 363h245l228 -363v-37h-240l-108 191h-4l-111 -191h-240z" />
    <glyph glyph-name="idieresis" unicode="&#xef;" horiz-adv-x="557" 
d="M446 0h-333v1024h333v-1024zM295 1389q0 72 52 125t124 53t124 -53t52 -125q0 -73 -52 -124t-124 -51t-124 51t-52 124zM-88 1389q0 72 52 125t124 53t124 -53t52 -125q0 -73 -52 -124t-124 -51t-124 51t-52 124z" />
    <glyph glyph-name="eth" unicode="&#xf0;" horiz-adv-x="1177" 
d="M590 -20q-117 0 -218.5 41.5t-171 112t-109.5 167t-40 203.5q0 114 38 213t102 167t149.5 107t177.5 39q83 0 148 -33l-140 189l-288 -60l-62 152l234 65l-140 187v35h332l92 -144l207 58l84 -197l-176 -37l31 -47q13 -19 37 -56q57 -87 84.5 -130t66.5 -115t56 -124
t30.5 -123t13.5 -146q0 -107 -40 -203t-110 -167t-171 -112.5t-217 -41.5zM389 504q0 -93 54 -156t147 -63q92 0 146.5 63t54.5 156q0 94 -54.5 160.5t-146.5 66.5q-93 0 -147 -66.5t-54 -160.5z" />
    <glyph glyph-name="ntilde" unicode="&#xf1;" 
d="M113 0v1024h333v-147q60 72 152 119.5t205 47.5q305 0 305 -395v-649h-336v573q0 90 -27 128t-86 38q-62 0 -118 -34.5t-95 -83.5v-621h-333zM233 1198q-33 174 23 269.5t170 95.5q37 0 75 -13t63.5 -27t72.5 -44l49 -31q24 -18 49 -18q27 0 32 23t-11 91h219
q33 -174 -22 -268t-169 -94q-37 0 -75 12t-64.5 26.5t-73.5 43.5l-47 30q-28 21 -51 21q-26 0 -30.5 -24.5t10.5 -92.5h-220z" />
    <glyph glyph-name="ograve" unicode="&#xf2;" horiz-adv-x="1177" 
d="M51 512q0 144 67.5 265.5t191.5 194t280 72.5q155 0 278.5 -72.5t190.5 -194t67 -265.5t-67 -265.5t-190.5 -194t-278.5 -72.5q-156 0 -280 72.5t-191.5 194t-67.5 265.5zM389 512q0 -93 54.5 -160t146.5 -67q91 0 146 67t55 160q0 94 -54.5 160.5t-146.5 66.5
q-93 0 -147 -66.5t-54 -160.5zM512 1184l-297 342v37h320l231 -342v-37h-254z" />
    <glyph glyph-name="oacute" unicode="&#xf3;" horiz-adv-x="1177" 
d="M51 512q0 144 67.5 265.5t191.5 194t280 72.5q155 0 278.5 -72.5t190.5 -194t67 -265.5t-67 -265.5t-190.5 -194t-278.5 -72.5q-156 0 -280 72.5t-191.5 194t-67.5 265.5zM389 512q0 -93 54.5 -160t146.5 -67q91 0 146 67t55 160q0 94 -54.5 160.5t-146.5 66.5
q-93 0 -147 -66.5t-54 -160.5zM963 1526l-295 -342h-256v37l233 342h318v-37z" />
    <glyph glyph-name="ocircumflex" unicode="&#xf4;" horiz-adv-x="1177" 
d="M590 -20q-156 0 -280 72.5t-191.5 194t-67.5 265.5t67.5 265.5t191.5 194t280 72.5q155 0 278.5 -72.5t190.5 -194t67 -265.5t-67 -265.5t-190.5 -194t-278.5 -72.5zM238 1163v37l229 363h246l227 -363v-37h-240l-108 191h-4l-111 -191h-239zM389 512q0 -93 54.5 -160
t146.5 -67q91 0 146 67t55 160q0 94 -54.5 160.5t-146.5 66.5q-93 0 -147 -66.5t-54 -160.5z" />
    <glyph glyph-name="otilde" unicode="&#xf5;" horiz-adv-x="1177" 
d="M51 512q0 144 67.5 265.5t191.5 194t280 72.5q155 0 278.5 -72.5t190.5 -194t67 -265.5t-67 -265.5t-190.5 -194t-278.5 -72.5q-156 0 -280 72.5t-191.5 194t-67.5 265.5zM389 512q0 -93 54.5 -160t146.5 -67q91 0 146 67t55 160q0 94 -54.5 160.5t-146.5 66.5
q-93 0 -147 -66.5t-54 -160.5zM623 1479l47 -31q29 -18 53 -18q25 0 29 23t-13 91h219q33 -174 -21.5 -268t-168.5 -94q-37 0 -75 12.5t-63 26t-73 43.5l-49 30q-28 21 -51 21q-26 0 -30.5 -24.5t11.5 -92.5h-219q-32 173 23.5 269t167.5 96q53 0 99 -20t114 -64z" />
    <glyph glyph-name="odieresis" unicode="&#xf6;" horiz-adv-x="1177" 
d="M51 512q0 144 67.5 265.5t191.5 194t280 72.5q155 0 278.5 -72.5t190.5 -194t67 -265.5t-67 -265.5t-190.5 -194t-278.5 -72.5q-156 0 -280 72.5t-191.5 194t-67.5 265.5zM389 512q0 -93 54.5 -160t146.5 -67q91 0 146 67t55 160q0 94 -54.5 160.5t-146.5 66.5
q-93 0 -147 -66.5t-54 -160.5zM625 1389q0 72 51 125t123 53t124 -53t52 -125q0 -73 -52 -124t-124 -51t-123 51t-51 124zM203 1389q0 72 52 125t124 53t124 -53t52 -125q0 -73 -52 -124t-124 -51t-124 51t-52 124z" />
    <glyph glyph-name="divide" unicode="&#xf7;" horiz-adv-x="1001" 
d="M971 504h-942v299h942v-299zM338 1069q0 66 47.5 114t114.5 48t114.5 -48t47.5 -114q0 -69 -47 -115.5t-115 -46.5t-115 46.5t-47 115.5zM338 236q0 66 47.5 113.5t114.5 47.5t114.5 -47.5t47.5 -113.5q0 -69 -47 -115.5t-115 -46.5t-115 46.5t-47 115.5z" />
    <glyph glyph-name="oslash" unicode="&#xf8;" horiz-adv-x="1177" 
d="M184 156q-133 152 -133 356q0 144 67.5 265.5t191.5 194t280 72.5q165 0 301 -86l78 89l108 -95l-78 -90q127 -149 127 -350q0 -144 -67 -265.5t-190.5 -194t-278.5 -72.5q-165 0 -295 81l-88 -100l-111 96zM408 412l272 307q-45 20 -90 20q-93 0 -147 -66.5t-54 -160.5
q0 -51 19 -100zM774 606l-268 -303q38 -18 84 -18q92 0 146.5 66.5t54.5 160.5q0 45 -17 94z" />
    <glyph glyph-name="ugrave" unicode="&#xf9;" 
d="M104 1024h336v-573q0 -89 26.5 -128.5t86.5 -39.5q62 0 118.5 35t94.5 85v621h336v-1024h-336v147q-60 -72 -151 -119.5t-203 -47.5q-308 0 -308 395v649zM240 1526v37h319l234 -342v-37h-256z" />
    <glyph glyph-name="uacute" unicode="&#xfa;" 
d="M104 1024h336v-573q0 -89 26.5 -128.5t86.5 -39.5q62 0 118.5 35t94.5 85v621h336v-1024h-336v147q-60 -72 -151 -119.5t-203 -47.5q-308 0 -308 395v649zM434 1221l234 342h317v-37l-295 -342h-256v37z" />
    <glyph glyph-name="ucircumflex" unicode="&#xfb;" 
d="M104 1024h336v-573q0 -89 26.5 -128.5t86.5 -39.5q62 0 118.5 35t94.5 85v621h336v-1024h-336v147q-60 -72 -151 -119.5t-203 -47.5q-308 0 -308 395v649zM250 1163v37l227 363h246l229 -363v-37h-239l-111 191h-4l-109 -191h-239z" />
    <glyph glyph-name="udieresis" unicode="&#xfc;" 
d="M104 1024h336v-573q0 -89 26.5 -128.5t86.5 -39.5q62 0 118.5 35t94.5 85v621h336v-1024h-336v147q-60 -72 -151 -119.5t-203 -47.5q-308 0 -308 395v649zM639 1389q0 72 51 125t123 53q73 0 124.5 -52.5t51.5 -125.5t-51 -124t-125 -51q-72 0 -123 51t-51 124zM393 1214
q-72 0 -123 51t-51 124q0 72 51 125t123 53t124 -53t52 -125q0 -73 -52 -124t-124 -51z" />
    <glyph glyph-name="yacute" unicode="&#xfd;" horiz-adv-x="1105" 
d="M375 63l-383 926v35h348l211 -555h4l211 555h348v-35l-485 -1186q-64 -156 -165 -236.5t-263 -80.5q-19 0 -51 4l-127 305q39 -8 108 -8q74 0 113 28.5t63 86.5zM389 1221l232 342h319v-37l-297 -342h-254v37z" />
    <glyph glyph-name="thorn" unicode="&#xfe;" horiz-adv-x="1239" 
d="M113 -498v2063h336v-652q69 64 139.5 97.5t161.5 33.5q133 0 234 -73t152.5 -193t51.5 -266q0 -147 -52 -266t-157.5 -192.5t-247.5 -73.5q-94 0 -169 32.5t-113 65.5v-576h-336zM449 674v-314q86 -75 194 -75q100 0 153.5 64t53.5 163t-54 163t-157 64q-109 0 -190 -65z
" />
    <glyph glyph-name="ydieresis" unicode="&#xff;" horiz-adv-x="1105" 
d="M-8 1024h348l211 -555h4l211 555h348v-35l-485 -1186q-64 -156 -165 -236.5t-263 -80.5q-19 0 -51 4l-127 305q39 -8 108 -8q74 0 113 28.5t63 86.5l68 161l-383 926v35zM168 1389q0 72 52 125t124 53t124 -53t52 -125q0 -73 -52 -124t-124 -51t-124 51t-52 124z
M590 1389q0 72 51 125t123 53t124 -53t52 -125q0 -73 -52 -124t-124 -51t-123 51t-51 124z" />
    <glyph glyph-name="Amacron" unicode="&#x100;" horiz-adv-x="1423" 
d="M0 0v37l549 1397h321l553 -1397v-37h-342l-92 242h-559l-88 -242h-342zM1018 1583h-621v258h621v-258zM524 514h371l-182 496h-4z" />
    <glyph glyph-name="amacron" unicode="&#x101;" horiz-adv-x="1099" 
d="M43 274q0 72 25 129t67 94t100 61t120 34t132 10q72 0 172 -14v16q0 84 -42.5 117t-145.5 33q-173 0 -299 -72l-16 287q67 26 107 39t108.5 24.5t144.5 11.5q252 0 364.5 -108t112.5 -313v-623h-334v100q-59 -55 -127.5 -87.5t-169.5 -32.5q-150 0 -234.5 79t-84.5 215z
M244 1501h618v-258h-618v258zM381 309q0 -39 29.5 -60.5t78.5 -21.5q78 0 170 62v104q-63 13 -118 13q-76 0 -118 -25.5t-42 -71.5z" />
    <glyph glyph-name="Abreve" unicode="&#x102;" horiz-adv-x="1423" 
d="M0 0v37l549 1397h323l551 -1397v-37h-342l-92 242h-557l-90 -242h-342zM362 1890h216q15 -149 133 -149q120 0 135 149h213q-22 -183 -110 -275.5t-238 -92.5q-149 0 -238 92.5t-111 275.5zM524 514h371l-182 496h-4z" />
    <glyph glyph-name="abreve" unicode="&#x103;" horiz-adv-x="1099" 
d="M43 274q0 72 25 129t67 94t100 61t120 34t132 10q72 0 172 -14v16q0 84 -42.5 117t-145.5 33q-173 0 -299 -72l-16 287q67 26 107 39t108.5 24.5t144.5 11.5q252 0 364.5 -108t112.5 -313v-623h-334v100q-59 -55 -127.5 -87.5t-169.5 -32.5q-150 0 -234.5 79t-84.5 215z
M203 1544h215q15 -149 133 -149q120 0 135 149h213q-22 -183 -110 -275.5t-238 -92.5q-149 0 -237.5 92.5t-110.5 275.5zM541 406q-76 0 -118 -25.5t-42 -71.5q0 -39 29.5 -60.5t78.5 -21.5q78 0 170 62v104q-63 13 -118 13z" />
    <glyph glyph-name="Aogonek" unicode="&#x104;" horiz-adv-x="1423" 
d="M0 0v37l549 1397h321l553 -1397v-37q-286 -173 -286 -272q0 -52 61 -52q56 0 166 39l-21 -194q-107 -35 -184 -35q-117 0 -184.5 60.5t-67.5 156.5q0 159 174 297l-92 242h-559l-90 -242h-340zM709 1010l-185 -496h369l-180 496h-4z" />
    <glyph glyph-name="aogonek" unicode="&#x105;" horiz-adv-x="1099" 
d="M43 274q0 72 25 129t67 94t100 61t120 34t132 10q72 0 172 -14v16q0 84 -42.5 117t-145.5 33q-173 0 -299 -72l-16 287q67 26 107 39t108.5 24.5t144.5 11.5q252 0 364.5 -108t112.5 -315v-621q-268 -162 -268 -272q0 -52 63 -52q56 0 166 39l-20 -194q-98 -35 -186 -35
q-116 0 -183 60t-67 157q0 78 45.5 155t128.5 142l-13 98q-60 -54 -128 -86t-169 -32q-150 0 -234.5 79t-84.5 215zM381 309q0 -39 29.5 -60.5t78.5 -21.5q78 0 170 62v104q-63 13 -118 13q-76 0 -118 -25.5t-42 -71.5z" />
    <glyph glyph-name="Cacute" unicode="&#x106;" horiz-adv-x="1290" 
d="M1198 406v-340q-104 -48 -197 -68.5t-221 -20.5q-204 0 -370.5 98t-259.5 267t-93 375q0 154 55 290.5t150 235t230 156t288 57.5q131 0 229.5 -23.5t200.5 -78.5l-39 -324q-82 57 -161 83t-174 26q-102 0 -184.5 -35.5t-134.5 -95.5t-79.5 -135t-27.5 -156t27.5 -156
t79.5 -135t134.5 -95.5t184.5 -35.5q112 0 194.5 29t167.5 82zM1149 1872l-295 -340h-256v37l233 340h318v-37z" />
    <glyph glyph-name="cacute" unicode="&#x107;" horiz-adv-x="972" 
d="M913 948l-24 -293q-62 33 -89.5 45.5t-73 25.5t-89.5 13q-116 0 -180 -64.5t-64 -162.5q0 -99 64 -163t180 -64q45 0 93.5 13.5t76.5 26t102 48.5l-2 -310q-154 -83 -323 -83q-225 0 -377 154t-152 380q0 147 68 268.5t188.5 191.5t268.5 70q89 0 177 -26t156 -70z
M946 1497l-272 -313h-256v37l233 342h295v-66z" />
    <glyph glyph-name="Ccircumflex" unicode="&#x108;" horiz-adv-x="1290" 
d="M780 -23q-204 0 -370.5 98t-259.5 267t-93 375q0 154 55 290.5t150 235t230 156t288 57.5q131 0 229.5 -23.5t200.5 -78.5l-39 -324q-82 57 -161 83t-174 26q-102 0 -184.5 -35.5t-134.5 -95.5t-79.5 -135t-27.5 -156t27.5 -156t79.5 -135t134.5 -95.5t184.5 -35.5
q112 0 194.5 29t167.5 82v-340q-103 -47 -197 -68t-221 -21zM424 1532v37l215 340h270l217 -340v-37h-239l-111 190h-4l-108 -190h-240z" />
    <glyph glyph-name="ccircumflex" unicode="&#x109;" horiz-adv-x="974" 
d="M582 -20q-225 0 -377 154t-152 380q0 147 67.5 268.5t187.5 191.5t267 70q90 0 179 -26t157 -70l-24 -293q-62 33 -89.5 45.5t-73 25.5t-89.5 13q-116 0 -180 -64.5t-64 -162.5q0 -99 64 -163t180 -64q45 0 93.5 13.5t76.5 26t102 48.5l-2 -310q-154 -83 -323 -83z
M211 1163v37l227 363h246l229 -363v-37h-239l-111 191h-4l-108 -191h-240z" />
    <glyph glyph-name="Cdotaccent" unicode="&#x10a;" horiz-adv-x="1290" 
d="M1198 406v-340q-98 -47 -196 -68t-222 -21q-204 0 -370.5 98t-259.5 267t-93 375q0 154 55 290.5t150 235t230 156t288 57.5q131 0 228 -22t202 -70l-39 -332q-82 56 -160 81.5t-175 25.5q-102 0 -184.5 -35.5t-134.5 -95.5t-79.5 -135t-27.5 -156t27.5 -156t79.5 -135
t134.5 -95.5t184.5 -35.5q112 0 193 29t169 82zM598 1710q0 76 51 128t127 52q75 0 127.5 -52.5t52.5 -127.5q0 -76 -52 -127t-128 -51t-127 51t-51 127z" />
    <glyph glyph-name="cdotaccent" unicode="&#x10b;" horiz-adv-x="974" 
d="M911 948l-24 -293q-62 32 -90 45t-75 26t-95 13q-110 0 -173 -64.5t-63 -162.5q0 -99 62.5 -163t173.5 -64q48 0 97.5 13.5t78.5 26t102 48.5v-310q-154 -83 -323 -83q-148 0 -270 70t-191.5 192.5t-69.5 269.5q0 225 150.5 378.5t373.5 153.5q90 0 179 -26t157 -70z
M367 1364q0 83 56.5 143t141.5 60q83 0 142 -60.5t59 -142.5q0 -85 -58.5 -141t-142.5 -56q-86 0 -142 55.5t-56 141.5z" />
    <glyph glyph-name="Ccaron" unicode="&#x10c;" horiz-adv-x="1290" 
d="M780 -23q-204 0 -370.5 98t-259.5 267t-93 375q0 154 55 290.5t150 235t230 156t288 57.5q131 0 229.5 -23.5t200.5 -78.5l-39 -324q-82 57 -161 83t-174 26q-102 0 -184.5 -35.5t-134.5 -95.5t-79.5 -135t-27.5 -156t27.5 -156t79.5 -135t134.5 -95.5t184.5 -35.5
q112 0 194.5 29t167.5 82v-340q-103 -47 -197 -68t-221 -21zM604 1532l-217 340v37h240l110 -189h4l109 189h240v-37l-216 -340h-270z" />
    <glyph glyph-name="ccaron" unicode="&#x10d;" horiz-adv-x="974" 
d="M575 -20q-145 0 -265 70t-188.5 193t-68.5 271q0 147 67.5 268.5t187.5 191.5t267 70q90 0 179 -26t157 -70l-24 -293q-62 32 -90 45t-76 26t-98 13q-107 0 -169.5 -65t-62.5 -162q0 -98 62 -162.5t168 -64.5q53 0 103.5 13t81 26.5t99.5 48.5v-310q-154 -83 -330 -83z
M199 1526v37h239l111 -191h4l109 191h239v-37l-227 -363h-246z" />
    <glyph glyph-name="Dcaron" unicode="&#x10e;" horiz-adv-x="1492" 
d="M123 1434h612q150 0 281 -56t223 -152.5t144.5 -228.5t52.5 -280t-52.5 -280t-144.5 -228.5t-223 -152.5t-281 -56h-612v1434zM715 1118h-248v-803h248q87 0 158.5 34.5t117 92t70 128.5t24.5 147q0 75 -24.5 146t-70 128t-117 92t-158.5 35zM561 1532l-215 340v37h238
l110 -189h4l109 189h240v-37l-216 -340h-270z" />
    <glyph glyph-name="dcaron" unicode="&#x10f;" horiz-adv-x="1476" 
d="M492 -20q-100 0 -183.5 42.5t-139 115t-86 169t-30.5 205.5q0 147 52 266t157.5 192.5t247.5 73.5q94 0 171 -32.5t112 -65.5v619h335v-1565h-335v113q-71 -66 -140.5 -99.5t-160.5 -33.5zM391 512q0 -99 55 -163t160 -64q110 0 187 63v320q-76 71 -187 71
q-105 0 -160 -64t-55 -163zM1194 987l82 578h246v-35l-103 -543h-225z" />
    <glyph glyph-name="Dcroat" unicode="&#x110;" horiz-adv-x="1492" 
d="M-14 612v236h137v586h614q150 0 281 -56t223 -152.5t144.5 -228.5t52.5 -280t-52.5 -280t-144.5 -228.5t-223 -152.5t-281 -56h-614v612h-137zM715 1118h-248v-270h281v-230h-281v-303h248q88 0 160 34.5t117.5 92t70 128.5t24.5 147q0 60 -15 117.5t-46.5 109t-75 90
t-104.5 61.5t-131 23z" />
    <glyph glyph-name="dcroat" unicode="&#x111;" horiz-adv-x="1239" 
d="M492 -20q-100 0 -183.5 42.5t-139 115t-86 169t-30.5 205.5q0 147 52 266t157.5 192.5t247.5 73.5q94 0 171 -32.5t112 -65.5v228h-226v192h226v199h335v-199h158v-192h-158v-1174h-335v113q-71 -66 -140.5 -99.5t-160.5 -33.5zM391 512q0 -99 54.5 -163t158.5 -64
q112 0 189 63v320q-76 71 -191 71q-103 0 -157 -64t-54 -163z" />
    <glyph glyph-name="Emacron" unicode="&#x112;" horiz-adv-x="1210" 
d="M121 0v1434h995v-312h-651v-250h618v-305h-618v-254h670l-21 -313h-993zM313 1841h619v-258h-619v258z" />
    <glyph glyph-name="emacron" unicode="&#x113;" horiz-adv-x="1097" 
d="M625 -20q-271 0 -421.5 145.5t-150.5 376.5q0 151 63.5 274t181.5 195.5t269 72.5q213 0 341 -140t128 -388v-96h-645q29 -84 102 -118t185 -34q22 0 43 1t43 4t37 4.5t37.5 7t33.5 8t35 9.5t31 9t34 11t32 10v-254q-172 -98 -379 -98zM244 1501h620v-258h-620v258z
M381 629h332v4q0 65 -41 113.5t-115 48.5q-65 0 -112 -42t-64 -124z" />
    <glyph glyph-name="Ebreve" unicode="&#x114;" horiz-adv-x="1210" 
d="M123 1434h993v-312h-651v-250h618v-305h-618v-254h670l-21 -313h-991v1434zM274 1890h215q15 -149 134 -149q120 0 135 149h213q-22 -183 -110 -275.5t-238 -92.5q-149 0 -238 92.5t-111 275.5z" />
    <glyph glyph-name="ebreve" unicode="&#x115;" horiz-adv-x="1097" 
d="M53 502q0 151 63.5 274t182.5 195.5t272 72.5q211 0 338 -138.5t127 -389.5v-96h-645q29 -84 102 -118t185 -34q22 0 43 1t43 4t37 4.5t37.5 7t33.5 8t35 9.5t31 9t34 11t32 10v-254q-172 -98 -379 -98q-271 0 -421.5 145.5t-150.5 376.5zM559 1176q-149 0 -237.5 92.5
t-110.5 275.5h215q15 -149 133 -149q120 0 135 149h213q-22 -183 -110 -275.5t-238 -92.5zM381 629h332v4q0 65 -41 113.5t-115 48.5q-65 0 -112 -42t-64 -124z" />
    <glyph glyph-name="Edotaccent" unicode="&#x116;" horiz-adv-x="1210" 
d="M123 0v1434h993v-312h-651v-250h618v-305h-618v-254h670l-19 -313h-993zM629 1532q-77 0 -127.5 51t-50.5 127t51 128t127 52q74 0 127 -52.5t53 -127.5q0 -76 -53 -127t-127 -51z" />
    <glyph glyph-name="edotaccent" unicode="&#x117;" horiz-adv-x="1097" 
d="M53 502q0 151 63.5 274t181.5 195.5t269 72.5q213 0 341 -140t128 -388v-96h-645q29 -84 102 -118t185 -34q22 0 43 1t43 4t37 4.5t37.5 7t33.5 8t35 9.5t31 9t34 11t32 10v-254q-172 -98 -379 -98q-271 0 -421.5 145.5t-150.5 376.5zM557 1167q-88 0 -144.5 55.5
t-56.5 141.5q0 83 57.5 143t143.5 60q83 0 141 -60.5t58 -142.5q0 -85 -57.5 -141t-141.5 -56zM381 629h332v4q0 65 -41 113.5t-115 48.5q-65 0 -112 -42t-64 -124z" />
    <glyph glyph-name="Eogonek" unicode="&#x118;" horiz-adv-x="1210" 
d="M791 0h-670v1434h995v-312h-651v-250h618v-305h-618v-254h670l-21 -313q-268 -162 -268 -272q0 -52 63 -52q56 0 166 39l-20 -194q-107 -35 -185 -35q-117 0 -184.5 60.5t-67.5 156.5q0 157 173 297z" />
    <glyph glyph-name="eogonek" unicode="&#x119;" horiz-adv-x="1097" 
d="M618 -20q-135 1 -243.5 41t-178 110.5t-106.5 165t-37 205.5q0 151 64 274t183.5 195.5t272.5 72.5q211 0 337 -138t126 -390v-96h-643q29 -84 101.5 -118t185.5 -34q22 0 43 1t43 4t37 4.5t37.5 7t33.5 8t35 9.5t31 9t34 11t32 10v-254q-310 -245 -310 -350
q0 -50 60 -50q57 0 170 41l-21 -196q-98 -35 -188 -35q-116 0 -182 60t-66 157q0 142 149 275zM383 629h330v4q0 66 -40.5 114t-113.5 48q-67 0 -114 -42t-62 -124z" />
    <glyph glyph-name="Ecaron" unicode="&#x11a;" horiz-adv-x="1210" 
d="M123 0v1434h995v-312h-651v-250h618v-305h-618v-254h668l-19 -313h-993zM279 1909h237l111 -189h4l108 189h240v-37l-215 -340h-270l-215 340v37z" />
    <glyph glyph-name="ecaron" unicode="&#x11b;" horiz-adv-x="1097" 
d="M625 -20q-271 0 -421.5 145.5t-150.5 376.5q0 151 63.5 274t182.5 195.5t272 72.5q211 0 338 -138t127 -390v-96h-645q29 -84 102 -118t185 -34q22 0 43 1t43 4t37 4.5t37.5 7t33.5 8t35 9.5t31 9t34 11t32 10v-254q-172 -98 -379 -98zM432 1163l-229 363v37h239
l111 -191h4l109 191h239v-37l-227 -363h-246zM381 629h332v4q0 65 -41 113.5t-115 48.5q-65 0 -112 -42t-64 -124z" />
    <glyph glyph-name="Gcircumflex" unicode="&#x11c;" horiz-adv-x="1400" 
d="M791 -23q-153 0 -289.5 60t-233 160t-153 236t-56.5 284q0 149 57.5 284t158 235.5t247.5 160t316 59.5q142 0 247 -25.5t213 -80.5l-36 -338q-115 69 -208.5 98t-209.5 29q-86 0 -159.5 -26.5t-123 -69t-84.5 -98.5t-51 -113.5t-16 -114.5q0 -106 48.5 -201.5
t144.5 -158t218 -62.5q96 0 164 24v211h-207v289h543v-749q-142 -51 -260.5 -72t-269.5 -21zM440 1569l215 340h252l215 -340v-37h-229l-111 190h-4l-110 -190h-228v37z" />
    <glyph glyph-name="gcircumflex" unicode="&#x11d;" horiz-adv-x="1241" 
d="M512 -20q-143 0 -249 73.5t-158 192.5t-52 266q0 146 51.5 266.5t152 194.5t232.5 74q91 0 161.5 -34.5t142.5 -99.5v111h335v-942q0 -281 -137.5 -438.5t-396.5 -157.5q-118 0 -244.5 24.5t-206.5 69.5l-26 314q115 -58 194.5 -80.5t200.5 -22.5q138 0 209.5 67
t71.5 185v35q-38 -33 -113.5 -65.5t-167.5 -32.5zM270 1163v37l228 363h245l228 -363v-37h-238l-110 191h-5l-108 -191h-240zM600 739q-102 0 -155.5 -63.5t-53.5 -163.5t54 -163.5t159 -63.5q108 0 189 61v322q-27 27 -77 49t-116 22z" />
    <glyph glyph-name="Gbreve" unicode="&#x11e;" horiz-adv-x="1398" 
d="M791 -23q-153 0 -290 60t-233.5 160t-153.5 236t-57 284q0 149 57.5 284t158.5 235.5t247.5 160t315.5 59.5q142 0 248 -25.5t214 -80.5l-38 -338q-112 69 -205.5 98t-210.5 29q-86 0 -159.5 -26.5t-123 -69t-84.5 -98.5t-51 -113.5t-16 -114.5q0 -106 48.5 -201.5
t144.5 -158t218 -62.5q94 0 162 24v211h-205v289h541v-749q-142 -51 -260.5 -72t-267.5 -21zM805 1522q-149 0 -237.5 92.5t-110.5 275.5h215q15 -149 133 -149q120 0 135 149h213q-22 -183 -110 -275.5t-238 -92.5z" />
    <glyph glyph-name="gbreve" unicode="&#x11f;" horiz-adv-x="1241" 
d="M53 512q0 146 51.5 266.5t152 194.5t232.5 74q91 0 161.5 -34.5t142.5 -99.5v111h335v-942q0 -281 -137.5 -438.5t-396.5 -157.5q-118 0 -244.5 24.5t-206.5 69.5l-26 314q115 -58 194.5 -80.5t200.5 -22.5q138 0 209.5 67t71.5 185v35q-38 -33 -113.5 -65.5
t-167.5 -32.5q-143 0 -249 73.5t-158 192.5t-52 266zM621 1176q-150 0 -238.5 92.5t-110.5 275.5h213q15 -149 136 -149q120 0 135 149h213q-22 -183 -110 -275.5t-238 -92.5zM600 739q-102 0 -155.5 -63.5t-53.5 -163.5t54 -163.5t159 -63.5q108 0 189 61v322
q-27 27 -77 49t-116 22z" />
    <glyph glyph-name="Gdotaccent" unicode="&#x120;" horiz-adv-x="1398" 
d="M1298 1350l-38 -338q-112 69 -206.5 98t-211.5 29q-86 0 -158.5 -26.5t-122 -69t-84.5 -98.5t-51 -113.5t-16 -114.5q0 -79 29 -154t80 -135t130 -96.5t172 -36.5q94 0 162 24v211h-205v289h541v-749q-142 -50 -261 -71.5t-270 -21.5q-203 0 -372 101.5t-264 271
t-95 367.5q0 149 57.5 284t158.5 235.5t247.5 160t315.5 59.5q142 0 247 -25.5t215 -80.5zM623 1710q0 76 50 128t126 52q75 0 127.5 -52.5t52.5 -127.5q0 -76 -52 -127t-128 -51t-126 50.5t-50 127.5z" />
    <glyph glyph-name="gdotaccent" unicode="&#x121;" horiz-adv-x="1241" 
d="M512 -20q-143 0 -249 73.5t-158 192.5t-52 266q0 146 51.5 266.5t152 194.5t232.5 74q91 0 161.5 -34.5t144.5 -99.5v111h335v-942q0 -280 -138.5 -438t-397.5 -158q-118 0 -243.5 24.5t-207.5 69.5l-26 314q115 -58 194.5 -80.5t200.5 -22.5q138 0 210.5 67t72.5 185v35
q-37 -33 -113.5 -65.5t-169.5 -32.5zM391 512q0 -100 54 -163.5t159 -63.5q106 0 191 61v322q-29 27 -79.5 49t-115.5 22q-102 0 -155.5 -63.5t-53.5 -163.5zM606 1167q-88 0 -144 55.5t-56 141.5q0 83 57 143t143 60q81 0 140 -60.5t59 -142.5q0 -85 -58 -141t-141 -56z
" />
    <glyph glyph-name="uni0122" unicode="&#x122;" horiz-adv-x="1398" 
d="M1298 1350l-36 -338q-115 69 -208.5 98t-209.5 29q-86 0 -159.5 -26.5t-123 -69t-84.5 -98.5t-51 -113.5t-16 -114.5q0 -106 48.5 -201.5t144.5 -158t218 -62.5q97 0 162 24v211h-205v289h543v-749q-142 -51 -260.5 -72t-269.5 -21q-153 0 -289.5 60t-233 160t-153 236
t-56.5 284q0 149 57.5 284t158 235.5t247.5 160t316 59.5q142 0 247 -25.5t213 -80.5zM623 -510l90 375h272v-35l-119 -340h-243z" />
    <glyph glyph-name="uni0123" unicode="&#x123;" horiz-adv-x="1239" 
d="M51 512q0 146 52 266.5t153 194.5t233 74q91 0 161.5 -34.5t142.5 -99.5v111h335v-942q0 -280 -138.5 -438t-397.5 -158q-118 0 -243.5 24.5t-207.5 69.5l-24 314q115 -58 193.5 -80.5t199.5 -22.5q139 0 211 67t72 185v35q-37 -33 -113.5 -65.5t-169.5 -32.5
q-142 0 -248 73.5t-158.5 192.5t-52.5 266zM600 739q-103 0 -157 -64t-54 -163t54.5 -163t158.5 -64q110 0 191 61v322q-76 71 -193 71zM727 1186h-272v37l116 340h246z" />
    <glyph glyph-name="Hcircumflex" unicode="&#x124;" horiz-adv-x="1503" 
d="M465 0h-344v1434h344v-545h571v545h344v-1434h-344v573h-571v-573zM637 1532h-238v37l215 340h271l215 -340v-37h-240l-108 190h-4z" />
    <glyph glyph-name="hcircumflex" unicode="&#x125;" 
d="M113 0v1565h333v-670q62 64 154.5 106.5t200.5 42.5q307 0 307 -395v-649h-334l-2 569q0 90 -23 130t-83 40q-59 0 -118 -33t-102 -79l3 -627h-336zM-72 1604v36l215 340h271l215 -340v-36h-240l-108 188h-5l-108 -188h-240z" />
    <glyph glyph-name="Hbar" unicode="&#x126;" horiz-adv-x="1503" 
d="M-12 1028v213h135v193h342v-193h571v193h344v-193h136v-213h-136v-1028h-344v573h-571v-573h-342v1028h-135zM1036 1028h-571v-139h571v139z" />
    <glyph glyph-name="hbar" unicode="&#x127;" 
d="M-39 1174v192h150v199h335v-199h236v-192h-236v-279q62 63 154.5 106t198.5 43q309 0 309 -393v-651h-336v569q0 90 -23.5 130t-84.5 40q-58 0 -116.5 -32.5t-101.5 -79.5v-627h-335v1174h-150z" />
    <glyph glyph-name="Itilde" unicode="&#x128;" horiz-adv-x="587" 
d="M465 0h-342v1434h342v-1434zM309 1829l84 -49q29 -19 53 -19q16 0 22.5 10.5t4.5 36.5t-14 72h221q31 -176 -26 -269t-181 -93q-101 0 -199 65l-84 49q-28 19 -51 19q-16 0 -22.5 -10.5t-4.5 -36.5t13 -72h-219q-33 176 24 269t181 93q100 0 198 -65z" />
    <glyph glyph-name="itilde" unicode="&#x129;" horiz-adv-x="557" 
d="M446 0h-333v1024h333v-1024zM344 1452l8 -4q28 -16 47 -16q27 0 30.5 24.5t-13.5 93.5h198q40 -184 -8.5 -274t-167.5 -90q-95 0 -207 67l-8 4q-30 17 -47 17q-25 0 -29 -25t13 -94h-199q-40 184 9 274.5t169 90.5q94 0 205 -68z" />
    <glyph glyph-name="Imacron" unicode="&#x12a;" horiz-adv-x="587" 
d="M467 0h-344v1434h344v-1434zM-14 1583v258h618v-258h-618z" />
    <glyph glyph-name="imacron" unicode="&#x12b;" horiz-adv-x="559" 
d="M446 0h-333v1024h333v-1024zM-25 1241v262h611v-262h-611z" />
    <glyph glyph-name="Ibreve" unicode="&#x12c;" horiz-adv-x="587" 
d="M467 0h-344v1434h344v-1434zM-55 1890h215q15 -149 133 -149q120 0 135 149h215q-22 -183 -111 -275.5t-239 -92.5q-149 0 -237.5 92.5t-110.5 275.5z" />
    <glyph glyph-name="ibreve" unicode="&#x12d;" horiz-adv-x="559" 
d="M446 0h-333v1024h333v-1024zM-68 1544h213q15 -149 136 -149q118 0 133 149h215q-22 -183 -110.5 -275.5t-237.5 -92.5q-150 0 -238.5 92.5t-110.5 275.5z" />
    <glyph glyph-name="Iogonek" unicode="&#x12e;" horiz-adv-x="587" 
d="M-31 -297q0 146 154 281v1450h344v-1434q-268 -162 -268 -272q0 -52 63 -52q56 0 166 39l-22 -194q-107 -35 -185 -35q-117 0 -184.5 60.5t-67.5 156.5z" />
    <glyph glyph-name="iogonek" unicode="&#x12f;" horiz-adv-x="559" 
d="M387 -479q-107 -35 -186 -35q-117 0 -184.5 60.5t-67.5 156.5q0 151 164 289v1032h333v-1024q-268 -162 -268 -272q0 -52 64 -52q56 0 166 39zM80 1364q0 83 57.5 143t143.5 60q81 0 139.5 -60.5t58.5 -142.5q0 -85 -57.5 -141t-140.5 -56q-88 0 -144.5 55.5t-56.5 141.5
z" />
    <glyph glyph-name="Idotaccent" unicode="&#x130;" horiz-adv-x="587" 
d="M465 0h-342v1434h342v-1434zM102 1710q0 81 54.5 137t136.5 56q81 0 136.5 -56.5t55.5 -136.5q0 -83 -55 -137.5t-137 -54.5q-83 0 -137 54.5t-54 137.5z" />
    <glyph glyph-name="dotlessi" unicode="&#x131;" horiz-adv-x="559" 
d="M446 0h-333v1024h333v-1024z" />
    <glyph glyph-name="IJ" unicode="&#x132;" horiz-adv-x="1587" 
d="M991 -23q-96 0 -171 19.5t-171 64.5v314q84 -41 148 -59.5t139 -18.5q113 0 161 49t48 170v918h342v-924q0 -264 -125 -398.5t-371 -134.5zM467 0h-344v1434h344v-1434z" />
    <glyph glyph-name="ij" unicode="&#x133;" horiz-adv-x="1095" 
d="M502 -340q38 32 59.5 55t44.5 58.5t33 80t10 103.5v1067h336v-1069q0 -170 -72 -284t-211 -197zM113 0v1024h333v-1024h-333zM817 1171q-88 0 -144.5 55.5t-56.5 143.5q0 83 57.5 142t143.5 59q82 0 140.5 -59.5t58.5 -141.5q0 -86 -58 -142.5t-141 -56.5zM78 1364
q0 83 57.5 143t143.5 60q81 0 139.5 -60.5t58.5 -142.5q0 -85 -57.5 -141t-140.5 -56q-88 0 -144.5 55.5t-56.5 141.5z" />
    <glyph glyph-name="Jcircumflex" unicode="&#x134;" horiz-adv-x="991" 
d="M53 373q83 -41 146 -58.5t139 -17.5q115 0 162 49t47 170v918h344v-924q0 -263 -126 -398t-372 -135q-97 0 -172 19t-168 63v314zM369 1569l215 340h270l215 -340v-37h-240l-108 190h-4l-111 -190h-237v37z" />
    <glyph glyph-name="jcircumflex" unicode="&#x135;" horiz-adv-x="559" 
d="M166 -526l-201 186q50 43 77 74t48 88.5t21 134.5v1067h335v-1069q0 -171 -71 -284.5t-209 -196.5zM-70 1163v37l228 363h245l228 -363v-37h-240l-108 191h-4l-111 -191h-238z" />
    <glyph glyph-name="uni0136" unicode="&#x136;" horiz-adv-x="1382" 
d="M123 0v1434h344v-584h2l494 584h389v-35l-551 -651l565 -711v-37h-397l-500 633h-2v-633h-344zM512 -510l88 375h274v-35l-118 -340h-244z" />
    <glyph glyph-name="uni0137" unicode="&#x137;" horiz-adv-x="1153" 
d="M446 0h-333v1565h333v-883h7l313 342h358v-35l-405 -440l422 -514v-35h-373l-315 399h-7v-399zM657 -510h-243l88 375h274v-35z" />
    <glyph glyph-name="kgreenlandic" unicode="&#x138;" horiz-adv-x="1153" 
d="M446 0h-333v1024h333v-342h7l313 342h358v-35l-403 -440l420 -514v-35h-373l-315 399h-7v-399z" />
    <glyph glyph-name="Lacute" unicode="&#x139;" horiz-adv-x="1105" 
d="M465 1434v-1119h604l-20 -315h-928v1434h344zM700 1872l-297 -340h-256v37l234 340h319v-37z" />
    <glyph glyph-name="lacute" unicode="&#x13a;" horiz-adv-x="559" 
d="M446 0h-333v1565h333v-1565zM676 1974l-273 -311h-253v37l212 311h314v-37z" />
    <glyph glyph-name="uni013B" unicode="&#x13b;" horiz-adv-x="1105" 
d="M465 1434v-1119h604l-20 -315h-926v1434h342zM391 -510l90 375h273v-35l-119 -340h-244z" />
    <glyph glyph-name="uni013C" unicode="&#x13c;" horiz-adv-x="559" 
d="M449 0h-336v1565h336v-1565zM57 -510l90 375h273v-35l-119 -340h-244z" />
    <glyph glyph-name="Lcaron" unicode="&#x13d;" horiz-adv-x="1105" 
d="M121 0v1434h344v-1119h604l-20 -315h-928zM760 838l-197 80q51 92 69.5 174t18.5 208v134h256v-111q0 -172 -35 -277.5t-112 -207.5z" />
    <glyph glyph-name="lcaron" unicode="&#x13e;" horiz-adv-x="796" 
d="M446 0h-333v1565h333v-1565zM514 985l80 580h246v-37l-101 -543h-225z" />
    <glyph glyph-name="Ldot" unicode="&#x13f;" horiz-adv-x="1105" 
d="M705 862q0 73 51.5 125.5t126.5 52.5q72 0 124 -53t52 -125q0 -77 -51.5 -126.5t-124.5 -49.5q-77 0 -127.5 49.5t-50.5 126.5zM465 1434v-1119h604l-20 -315h-928v1434h344z" />
    <glyph glyph-name="ldot" unicode="&#x140;" horiz-adv-x="950" 
d="M567 836q0 73 50.5 125.5t125.5 52.5q73 0 125 -53t52 -125q0 -77 -51 -127t-126 -50q-77 0 -126.5 49.5t-49.5 127.5zM446 0h-333v1565h333v-1565z" />
    <glyph glyph-name="Lslash" unicode="&#x141;" horiz-adv-x="1105" 
d="M121 592l-162 -47v248l162 47v594h344v-496l313 90v-246l-313 -90v-377h604l-22 -315h-926v592z" />
    <glyph glyph-name="lslash" unicode="&#x142;" horiz-adv-x="559" 
d="M-53 635v250l166 47v633h336v-535l165 49v-250l-165 -47v-782h-336v686z" />
    <glyph glyph-name="Nacute" unicode="&#x143;" horiz-adv-x="1548" 
d="M465 0h-344v1434h285l677 -736v736h342v-1440h-153l-807 864v-858zM588 1532v37l233 340h320v-37l-297 -340h-256z" />
    <glyph glyph-name="nacute" unicode="&#x144;" 
d="M446 0h-333v1024h333v-147q60 72 152 119.5t205 47.5q305 0 305 -395v-649h-334v573q0 89 -27.5 127.5t-87.5 38.5q-62 0 -118 -34.5t-95 -83.5v-621zM446 1221l234 342h305v-52l-283 -327h-256v37z" />
    <glyph glyph-name="uni0145" unicode="&#x145;" horiz-adv-x="1548" 
d="M467 0h-344v1434h285l675 -736v736h344v-1440h-153l-809 864zM815 -510h-246l90 375h275v-35z" />
    <glyph glyph-name="uni0146" unicode="&#x146;" 
d="M113 0v1024h336l-3 -147q60 72 152.5 119.5t204.5 47.5q307 0 307 -395v-649h-336v573q0 90 -26.5 128t-85.5 38q-62 0 -118.5 -34.5t-97.5 -83.5v-621h-333zM649 -510h-243l90 375h272v-35z" />
    <glyph glyph-name="Ncaron" unicode="&#x147;" horiz-adv-x="1548" 
d="M465 0h-342v1434h285l675 -736v736h344v-1440h-153l-809 864v-858zM410 1872v37h239l109 -189h4l110 189h240v-37l-217 -340h-270z" />
    <glyph glyph-name="ncaron" unicode="&#x148;" 
d="M113 1024h333v-147q60 72 151.5 119.5t203.5 47.5q309 0 309 -395v-649h-336v573q0 90 -26.5 128t-85.5 38q-62 0 -120 -34.5t-96 -83.5v-621h-333v1024zM492 1163l-230 363v37h240l110 -191h4l109 191h240v-37l-228 -363h-245z" />
    <glyph glyph-name="napostrophe" unicode="&#x149;" 
d="M446 0h-333v1024h333v-147q58 72 151 119.5t206 47.5q305 0 305 -395v-649h-334l-2 573q0 90 -27 128t-86 38q-62 0 -118 -34.5t-95 -83.5v-621zM18 1196q58 92 75.5 152t17.5 168v49h274v-35q0 -82 -11.5 -145t-38.5 -114t-56 -88t-78 -87z" />
    <glyph glyph-name="Eng" unicode="&#x14a;" horiz-adv-x="1548" 
d="M467 0h-344v1434h285l675 -736v736h344v-1538q0 -214 -101 -312t-300 -98q-80 0 -162 16v301q56 -10 109 -10q62 0 91.5 26.5t29.5 86.5v270l-627 682v-858z" />
    <glyph glyph-name="eng" unicode="&#x14b;" 
d="M113 1024h333v-147q58 72 150.5 119.5t204.5 47.5q307 0 307 -395v-751q0 -216 -101 -314t-300 -98q-69 0 -162 18v299q56 -10 108 -10q62 0 91.5 26.5t29.5 86.5l-2 667q0 90 -27 128t-86 38q-62 0 -118 -34.5t-95 -83.5v-621h-333v1024z" />
    <glyph glyph-name="Omacron" unicode="&#x14c;" horiz-adv-x="1548" 
d="M57 717q0 146 55 281.5t149 236.5t228.5 161t284.5 60q120 0 231 -38.5t198 -108t152.5 -161.5t100.5 -203t35 -228t-35 -228t-100 -203t-152 -161.5t-198.5 -108.5t-231.5 -39t-231.5 39t-198.5 108.5t-152 161.5t-100 203t-35 228zM410 717q0 -75 24.5 -149
t68.5 -135.5t115 -99.5t156 -38q84 0 155 38t115.5 99.5t69.5 135.5t25 149t-25 149t-69.5 135.5t-115.5 99.5t-155 38q-85 0 -156 -38t-115 -99.5t-68.5 -135.5t-24.5 -149zM465 1583v258h618v-258h-618z" />
    <glyph glyph-name="omacron" unicode="&#x14d;" horiz-adv-x="1177" 
d="M49 512q0 107 40 204.5t110 170t171.5 115t217.5 42.5q155 0 279 -72.5t191.5 -194t67.5 -265.5t-67.5 -265.5t-191.5 -194t-279 -72.5q-116 0 -217.5 42.5t-171.5 115t-110 170t-40 204.5zM387 512q0 -93 55 -160t146 -67q92 0 146 67t54 160q0 94 -53.5 160.5
t-146.5 66.5q-92 0 -146.5 -66.5t-54.5 -160.5zM281 1243v258h618v-258h-618z" />
    <glyph glyph-name="Obreve" unicode="&#x14e;" horiz-adv-x="1548" 
d="M776 -23q-150 0 -284.5 60.5t-229 161.5t-150 236.5t-55.5 281.5t55 281.5t149 236.5t228.5 161t284.5 60t284.5 -60t228.5 -161t149 -236.5t55 -281.5q0 -195 -92.5 -364.5t-258 -272.5t-364.5 -103zM774 1139q-85 0 -156 -38t-115 -99.5t-68.5 -135.5t-24.5 -149
t24.5 -149t68.5 -135.5t115 -99.5t156 -38t156.5 38t116.5 99.5t69.5 135.5t24.5 149t-24.5 149t-69.5 135.5t-116.5 99.5t-156.5 38zM426 1890h213q15 -149 135 -149t135 149h213q-22 -183 -110 -275.5t-238 -92.5t-238 92.5t-110 275.5z" />
    <glyph glyph-name="obreve" unicode="&#x14f;" horiz-adv-x="1177" 
d="M590 -20q-156 0 -280 72.5t-191.5 194t-67.5 265.5t67.5 265.5t191.5 194t280 72.5q155 0 278.5 -72.5t190.5 -194t67 -265.5t-67 -265.5t-190.5 -194t-278.5 -72.5zM590 1176q-150 0 -239 92.5t-111 275.5h215q15 -149 135 -149q118 0 133 149h215
q-22 -183 -110.5 -275.5t-237.5 -92.5zM389 512q0 -93 54.5 -160t146.5 -67q91 0 146 67t55 160q0 94 -54.5 160.5t-146.5 66.5q-93 0 -147 -66.5t-54 -160.5z" />
    <glyph glyph-name="Ohungarumlaut" unicode="&#x150;" horiz-adv-x="1548" 
d="M776 -23q-150 0 -284.5 60.5t-229 161.5t-150 236.5t-55.5 281.5t55 281.5t149 236.5t228.5 161t284.5 60t284.5 -60t228.5 -161t149 -236.5t55 -281.5q0 -195 -92.5 -364.5t-258 -272.5t-364.5 -103zM410 717q0 -75 24.5 -149t68.5 -135.5t115 -99.5t156 -38t156.5 38
t116.5 99.5t69.5 135.5t24.5 149t-24.5 149t-69.5 135.5t-116.5 99.5t-156.5 38t-156 -38t-115 -99.5t-68.5 -135.5t-24.5 -149zM498 1532l182 377h289l-258 -377h-213zM817 1532l182 377h265v-35l-234 -342h-213z" />
    <glyph glyph-name="ohungarumlaut" unicode="&#x151;" horiz-adv-x="1177" 
d="M590 -20q-116 0 -217.5 42.5t-171.5 115t-110 170t-40 204.5t40 204.5t110 170t171.5 115t217.5 42.5q155 0 279 -72.5t191.5 -194t67.5 -265.5t-67.5 -265.5t-191.5 -194t-279 -72.5zM590 739q-93 0 -147 -66.5t-54 -160.5q0 -93 54.5 -160t146.5 -67q91 0 146 67
t55 160q0 94 -54.5 160.5t-146.5 66.5zM635 1184l182 379h264v-37l-233 -342h-213zM315 1184l185 379h286l-258 -379h-213z" />
    <glyph glyph-name="OE" unicode="&#x152;" horiz-adv-x="2066" 
d="M780 -20q-203 0 -369.5 100t-260 268.5t-93.5 368.5t93.5 368.5t260 268.5t369.5 100q56 0 191 -9t178 -11h825v-312h-651v-250h621v-305h-621v-256h670l-19 -311h-825q-46 -2 -191.5 -11t-177.5 -9zM410 717q0 -78 27.5 -152.5t77 -134.5t125.5 -96.5t165 -36.5
q122 0 174 14v809q-83 17 -174 17q-89 0 -165 -36.5t-125.5 -96.5t-77 -134.5t-27.5 -152.5z" />
    <glyph glyph-name="oe" unicode="&#x153;" horiz-adv-x="1837" 
d="M590 -20q-116 0 -217.5 42.5t-171.5 115t-110 170t-40 204.5t40 204.5t110 170t171.5 115t217.5 42.5q217 0 358 -141q144 141 361 141q211 0 338 -138t127 -390v-96h-646q29 -84 102 -118t187 -34q63 0 127 11t95 20t102 31v-252q-165 -98 -377 -98q-264 0 -416 139
q-145 -139 -358 -139zM389 512q0 -93 54.5 -160t146.5 -67q91 0 146 67t55 160q0 94 -54.5 160.5t-146.5 66.5q-93 0 -147 -66.5t-54 -160.5zM1118 629h332v4q0 66 -40.5 114t-113.5 48q-67 0 -114 -42t-64 -124z" />
    <glyph glyph-name="Racute" unicode="&#x154;" horiz-adv-x="1300" 
d="M123 1434h610q133 0 234.5 -37.5t161 -103t89 -146t29.5 -174.5q0 -152 -76 -268.5t-231 -165.5l328 -502v-37h-371l-334 510h-98v-510h-342v1434zM465 803h215q217 0 217 170q0 168 -217 168h-215v-338zM483 1569l234 340h319v-37l-297 -340h-256v37z" />
    <glyph glyph-name="racute" unicode="&#x155;" horiz-adv-x="856" 
d="M446 0h-333v1024h333v-174q115 194 289 194q74 0 109 -14l-29 -342q-85 29 -123 29q-131 0 -246 -162v-555zM596 1184h-254v37l231 342h301v-58z" />
    <glyph glyph-name="uni0156" unicode="&#x156;" horiz-adv-x="1300" 
d="M121 1434h612q132 0 233.5 -37.5t161 -102.5t89.5 -146t30 -175q0 -151 -76.5 -268t-230.5 -166l328 -502v-37h-371l-334 510h-98v-510h-344v1434zM680 1141h-215v-338h215q215 0 215 170q0 168 -215 168zM731 -510h-244l91 375h272v-35z" />
    <glyph glyph-name="uni0157" unicode="&#x157;" horiz-adv-x="854" 
d="M446 0h-335v1024h335v-174q34 77 109 135.5t186 58.5q68 0 103 -14l-29 -352q-12 4 -35 13t-35.5 13.5t-32 8.5t-38.5 4q-71 0 -130 -40.5t-98 -94.5v-582zM55 -510l90 375h273v-35l-117 -340h-246z" />
    <glyph glyph-name="Rcaron" unicode="&#x158;" horiz-adv-x="1300" 
d="M467 0h-344v1434h610q133 0 234.5 -37.5t161 -103t89 -146t29.5 -174.5q0 -152 -76 -268.5t-231 -165.5l328 -502v-37h-371l-332 510h-98v-510zM291 1872v37h239l109 -189h4l111 189h237v-37l-215 -340h-270zM680 1141h-213v-338h213q217 0 217 170q0 168 -217 168z" />
    <glyph glyph-name="rcaron" unicode="&#x159;" horiz-adv-x="856" 
d="M113 0v1024h333v-174q115 194 289 194q74 0 109 -14l-29 -342q-85 29 -123 29q-131 0 -246 -162v-555h-333zM152 1526v37h237l111 -191h4l108 191h240v-37l-227 -363h-246z" />
    <glyph glyph-name="Sacute" unicode="&#x15a;" horiz-adv-x="1181" 
d="M1069 1331l-29 -317q-120 74 -216 106.5t-206 32.5q-99 0 -146.5 -34.5t-47.5 -90.5q0 -29 24.5 -52t65.5 -39.5t94 -33t111.5 -35.5t117.5 -42.5t112 -59t94 -80t65.5 -110.5t24.5 -146q0 -216 -146 -334.5t-401 -118.5q-261 0 -502 134v317q131 -70 246.5 -109.5
t240.5 -39.5q116 0 171 38.5t55 100.5q0 36 -30.5 63.5t-80 44.5t-113 37.5t-130 40.5t-130 55t-113 79t-80 116t-30.5 162q0 192 141.5 316t372.5 124q236 0 465 -125zM1022 1872l-297 -340h-256v37l233 340h320v-37z" />
    <glyph glyph-name="sacute" unicode="&#x15b;" horiz-adv-x="911" 
d="M850 1511l-283 -327h-256v37l234 342h305v-52zM68 78v278q192 -105 346 -108q116 0 116 57q0 25 -25.5 43.5t-66 32t-90 28t-99 38t-90 55.5t-66 87t-25.5 126q0 155 110.5 242t294.5 87q186 0 328 -77l-23 -269q-135 78 -268 78q-50 0 -80.5 -13t-30.5 -38
q0 -21 25.5 -37t66.5 -28t90 -27t98.5 -39t90.5 -57.5t66.5 -90t25.5 -129.5q0 -158 -110.5 -247.5t-298.5 -89.5q-107 0 -210 28t-175 70z" />
    <glyph glyph-name="Scircumflex" unicode="&#x15c;" horiz-adv-x="1181" 
d="M586 -23q-261 0 -502 134v317q131 -70 246.5 -109.5t240.5 -39.5q116 0 171 38.5t55 100.5q0 36 -30.5 63.5t-80 44.5t-113 37.5t-130 40.5t-130 55t-113 79t-80 116t-30.5 162q0 192 141.5 316t372.5 124q236 0 465 -125l-29 -317q-120 74 -216 106.5t-206 32.5
q-99 0 -146.5 -34.5t-47.5 -90.5q0 -29 24.5 -52t65.5 -39.5t94 -33t111.5 -35.5t117.5 -42.5t112 -59t94 -80t65.5 -110.5t24.5 -146q0 -216 -146 -334.5t-401 -118.5zM252 1532v37l215 340h270l217 -340v-37h-239l-111 190h-4l-108 -190h-240z" />
    <glyph glyph-name="scircumflex" unicode="&#x15d;" horiz-adv-x="911" 
d="M66 356q195 -105 348 -108q116 0 116 57q0 25 -25.5 43.5t-66 32t-90 28t-99 38t-90 55.5t-66 87t-25.5 126q0 155 110.5 242t294.5 87q187 0 326 -77l-21 -269q-135 78 -268 78q-50 0 -80.5 -13t-30.5 -38q0 -21 25.5 -37t66.5 -28t90 -27t98.5 -39t90.5 -57.5t66.5 -90
t25.5 -129.5q0 -158 -110.5 -247.5t-298.5 -89.5q-107 0 -210 27.5t-177 70.5v278zM104 1163v37l230 363h246l227 -363v-37h-240l-108 191h-4l-111 -191h-240z" />
    <glyph glyph-name="Scedilla" unicode="&#x15e;" horiz-adv-x="1181" 
d="M86 111v317q129 -69 244.5 -109t240.5 -40q116 0 172 38.5t56 100.5q0 36 -30.5 63.5t-80.5 44.5t-113.5 37.5t-130 40.5t-130 55t-113.5 79t-80.5 116t-30.5 162q0 192 141.5 316t372.5 124q236 0 465 -125l-29 -317q-225 139 -422 139q-99 0 -146.5 -34.5t-47.5 -90.5
q0 -29 24.5 -52t65.5 -39.5t94 -33t111.5 -35.5t117.5 -42.5t112 -59t94 -80t65.5 -110.5t24.5 -146q0 -192 -118.5 -308t-326.5 -138l-26 -70q95 -8 146.5 -58.5t51.5 -138.5q0 -110 -80.5 -170.5t-216.5 -60.5q-102 0 -186 25v204q79 -23 153 -26q113 0 113 39
q0 45 -129 45h-29l-39 61l60 148q-217 17 -420 129z" />
    <glyph glyph-name="scedilla" unicode="&#x15f;" horiz-adv-x="911" 
d="M532 305q0 25 -25.5 43.5t-66.5 32t-90.5 28t-99 38t-90.5 55.5t-66.5 87t-25.5 126q0 155 111 242t294 87q189 0 328 -77l-23 -269q-132 78 -266 78q-50 0 -81.5 -13t-31.5 -38q0 -21 25.5 -37t66.5 -28t90 -27t98.5 -39t90.5 -57.5t66.5 -90t25.5 -129.5
q0 -138 -84.5 -224.5t-234.5 -106.5l-29 -72q96 -8 147.5 -58.5t51.5 -138.5q0 -111 -80 -171t-217 -60q-103 0 -187 25l2 204q79 -24 166 -24q99 0 99 37q0 45 -127 45h-29l-41 61l61 152q-166 20 -292 92v278q195 -105 348 -108q116 0 116 57z" />
    <glyph glyph-name="Scaron" unicode="&#x160;" horiz-adv-x="1181" 
d="M86 428q129 -69 244.5 -109t240.5 -40q116 0 172 38.5t56 100.5q0 36 -30.5 63.5t-80.5 44.5t-113.5 37.5t-130 40.5t-130 55t-113.5 79t-80.5 116t-30.5 162q0 192 141.5 316t372.5 124q236 0 465 -125l-29 -317q-118 73 -215 106t-207 33q-99 0 -146.5 -34.5
t-47.5 -90.5q0 -29 24.5 -52t65.5 -39.5t94 -33t111.5 -35.5t117.5 -42.5t112 -59t94 -80t65.5 -110.5t24.5 -146q0 -216 -146 -334.5t-401 -118.5q-264 0 -500 134v317zM266 1872v37h240l108 -189h4l109 189h240v-37l-215 -340h-271z" />
    <glyph glyph-name="scaron" unicode="&#x161;" horiz-adv-x="911" 
d="M68 356q192 -105 346 -108q116 0 116 57q0 25 -25.5 43.5t-66 32t-90 28t-99 38t-90 55.5t-66 87t-25.5 126q0 155 110.5 242t294.5 87q186 0 328 -77l-23 -269q-135 78 -268 78q-50 0 -80.5 -13t-30.5 -38q0 -21 25.5 -37t66.5 -28t90 -27t98.5 -39t90.5 -57.5t66.5 -90
t25.5 -129.5q0 -158 -110.5 -247.5t-298.5 -89.5q-107 0 -210 28t-175 70v278zM104 1561h240l111 -189h4l108 189h240v-37l-227 -361h-246l-230 361v37z" />
    <glyph glyph-name="uni0162" unicode="&#x162;" horiz-adv-x="1173" 
d="M27 1434h1120l-21 -316h-368v-1118h-72l-35 -86q95 -8 147 -59.5t52 -139.5q0 -109 -80 -169t-217 -60q-102 0 -186 25v202q92 -24 157 -24q109 0 109 39q0 45 -129 45h-29l-39 61l68 166h-90v1118h-387v316z" />
    <glyph glyph-name="uni0163" unicode="&#x163;" horiz-adv-x="778" 
d="M27 737v287h129l4 293h323v-293h224l-19 -287h-205v-381q0 -41 19 -56t63 -15q55 0 135 18v-283q-93 -33 -182 -38l-26 -68q95 -8 146.5 -58.5t51.5 -138.5q0 -111 -80 -171t-217 -60q-102 0 -186 25v204q81 -24 155 -24q111 0 111 37q0 45 -129 45h-29l-39 61l66 162
q-192 55 -195 295l3 446h-123z" />
    <glyph glyph-name="Tcaron" unicode="&#x164;" horiz-adv-x="1173" 
d="M27 1434h1120l-21 -316h-368v-1118h-344v1118h-387v316zM461 1532l-215 340v37h219l119 -193h4l119 193h221v-37l-215 -340h-252z" />
    <glyph glyph-name="tcaron" unicode="&#x165;" horiz-adv-x="800" 
d="M27 1024h131l2 293h323v-293h224l-19 -287h-205v-381q0 -41 20 -56t64 -15q53 0 133 18v-283q-109 -40 -221 -40q-329 0 -329 311v446h-123v287zM735 1116h-182l57 449h201v-35z" />
    <glyph glyph-name="Tbar" unicode="&#x166;" horiz-adv-x="1173" 
d="M27 1118v316h1120l-21 -316h-368v-323h248v-246h-248v-549h-344v549h-248v246h248v323h-387z" />
    <glyph glyph-name="tbar" unicode="&#x167;" horiz-adv-x="778" 
d="M27 442v168h123v127h-123v287h129l4 293h323v-293h224l-19 -287h-205v-127h215v-168h-215v-86q0 -40 18 -55.5t54 -15.5q65 0 145 18v-283q-109 -40 -239 -40q-152 0 -231.5 78t-79.5 233v151h-123z" />
    <glyph glyph-name="Utilde" unicode="&#x168;" horiz-adv-x="1370" 
d="M100 541v893h344v-867q0 -130 63 -201t179 -71q115 0 177.5 70.5t62.5 201.5v867h342v-893q0 -261 -157.5 -412.5t-424.5 -151.5q-268 0 -427 151.5t-159 412.5zM301 1532q-33 176 24 269t181 93q101 0 199 -65l83 -49q28 -19 52 -19q25 0 28 25t-14 94h219
q33 -176 -24 -269t-181 -93q-100 0 -198 65l-84 49q-29 19 -51 19q-24 0 -28 -25t13 -94h-219z" />
    <glyph glyph-name="utilde" unicode="&#x169;" horiz-adv-x="1214" 
d="M104 1024h336v-573q0 -89 26.5 -128.5t86.5 -39.5q62 0 118.5 35t94.5 85v621h336v-1024h-336v147q-60 -72 -151 -119.5t-203 -47.5q-308 0 -308 395v649zM236 1198q-31 174 24.5 269.5t167.5 95.5q37 0 75 -13t63.5 -27t72.5 -44l49 -31q24 -18 49 -18q27 0 32 23
t-11 91h219q33 -174 -22 -268t-169 -94q-53 0 -98.5 19.5t-112.5 62.5l-49 30q-28 21 -51 21q-26 0 -30 -24.5t12 -92.5h-221z" />
    <glyph glyph-name="Umacron" unicode="&#x16a;" horiz-adv-x="1370" 
d="M100 1434h344v-867q0 -130 63 -201t179 -71q115 0 177.5 70.5t62.5 201.5v867h342v-893q0 -261 -157.5 -412.5t-424.5 -151.5q-268 0 -427 151.5t-159 412.5v893zM995 1583h-618v258h618v-258z" />
    <glyph glyph-name="umacron" unicode="&#x16b;" 
d="M104 1024h336v-573q0 -89 26.5 -128.5t86.5 -39.5q62 0 117 34.5t94 85.5v621h336v-1024h-336v147q-58 -72 -150 -119.5t-204 -47.5q-306 0 -306 395v649zM291 1501h618v-258h-618v258z" />
    <glyph glyph-name="Ubreve" unicode="&#x16c;" horiz-adv-x="1370" 
d="M98 541v893h344v-867q0 -130 63 -201t179 -71q115 0 177.5 70.5t62.5 201.5v867h344v-893q0 -261 -158.5 -412.5t-425.5 -151.5t-426.5 151.5t-159.5 412.5zM336 1890h215q15 -149 133 -149q120 0 135 149h213q-22 -183 -110 -275.5t-238 -92.5q-149 0 -237.5 92.5
t-110.5 275.5z" />
    <glyph glyph-name="ubreve" unicode="&#x16d;" 
d="M104 1024h336v-573q0 -89 26.5 -128.5t86.5 -39.5q62 0 118.5 35t94.5 85v621h336v-1024h-336v147q-60 -72 -151 -119.5t-203 -47.5q-308 0 -308 395v649zM250 1544h213q15 -149 135 -149t135 149h213q-22 -183 -110 -275.5t-238 -92.5t-238 92.5t-110 275.5z" />
    <glyph glyph-name="Uring" unicode="&#x16e;" horiz-adv-x="1370" 
d="M686 -23q-268 0 -427 151.5t-159 412.5v893h344v-867q0 -130 63 -201t179 -71q115 0 177.5 70.5t62.5 201.5v867h344v-893q0 -261 -158.5 -412.5t-425.5 -151.5zM438 1722q0 103 72.5 175.5t175.5 72.5q102 0 176 -73t74 -175q0 -103 -74 -175t-176 -72
q-103 0 -175.5 71.5t-72.5 175.5zM686 1796q-30 0 -50 -22.5t-20 -53.5t20 -52t50 -21q32 0 52 21t20 52q0 32 -20 54t-52 22z" />
    <glyph glyph-name="uring" unicode="&#x16f;" 
d="M104 1024h336v-573q0 -89 26.5 -128.5t86.5 -39.5q62 0 118.5 35t94.5 85v621h336v-1024h-336v147q-60 -72 -151 -119.5t-203 -47.5q-308 0 -308 395v649zM602 1135q-103 0 -175.5 71.5t-72.5 175.5q0 103 72.5 175.5t175.5 72.5q102 0 176 -73t74 -175q0 -103 -74 -175
t-176 -72zM530 1380q0 -31 20.5 -52t51.5 -21q33 0 52.5 20.5t19.5 52.5q0 33 -19.5 53.5t-52.5 20.5q-31 0 -51.5 -21t-20.5 -53z" />
    <glyph glyph-name="Uhungarumlaut" unicode="&#x170;" horiz-adv-x="1370" 
d="M100 1434h344v-867q0 -130 63 -201t179 -71q115 0 177.5 70.5t62.5 201.5v867h342v-893q0 -261 -157.5 -412.5t-424.5 -151.5q-268 0 -427 151.5t-159 412.5v893zM395 1532l183 377h288l-258 -377h-213zM928 1532h-215l184 377h262v-35z" />
    <glyph glyph-name="uhungarumlaut" unicode="&#x171;" 
d="M104 1024h336v-573q0 -89 26.5 -128.5t86.5 -39.5q62 0 118.5 35t94.5 85v621h336v-1024h-336v147q-60 -72 -151 -119.5t-203 -47.5q-308 0 -308 395v649zM309 1184l183 379h288l-258 -379h-213zM842 1184h-213l182 379h264v-37z" />
    <glyph glyph-name="Uogonek" unicode="&#x172;" horiz-adv-x="1370" 
d="M100 541v893h344v-867q0 -130 63 -201t179 -71q115 0 177.5 70.5t62.5 201.5v867h342v-893q0 -178 -74 -306.5t-211 -195.5q-150 -115 -216.5 -187.5t-66.5 -123.5q0 -52 64 -52q56 0 166 39l-21 -194q-98 -35 -186 -35q-118 0 -184 60t-66 157q0 146 150 277
q-242 19 -382.5 167.5t-140.5 393.5z" />
    <glyph glyph-name="uogonek" unicode="&#x173;" 
d="M104 1024h336v-573q0 -90 26.5 -129t86.5 -39q62 0 117 34.5t94 83.5v623h336v-1024q-269 -162 -269 -272q0 -52 64 -52q56 0 166 39l-21 -194q-107 -35 -186 -35q-117 0 -183.5 60.5t-66.5 156.5q0 158 172 297l-12 147q-58 -72 -150 -119.5t-204 -47.5
q-157 0 -231.5 103t-74.5 290v651z" />
    <glyph glyph-name="Wcircumflex" unicode="&#x174;" horiz-adv-x="1980" 
d="M-4 1399v35h362l242 -713h2l281 713v2h217v-2l280 -713h2l242 713h363v-35l-488 -1405h-151l-355 891h-4l-354 -891h-152zM881 1532h-240v37l215 340h270l215 -340v-37h-237l-111 190h-4z" />
    <glyph glyph-name="wcircumflex" unicode="&#x175;" horiz-adv-x="1542" 
d="M375 -12l-377 1001v35h334l149 -422h2l172 422h232l172 -422h2l149 422h334v-35l-375 -1001h-147l-248 577h-4l-250 -577h-145zM659 1163h-239v37l227 363h246l229 -363v-37h-239l-111 191h-4z" />
    <glyph glyph-name="Ycircumflex" unicode="&#x176;" horiz-adv-x="1267" 
d="M463 610l-467 789v35h348l291 -494l293 494h346v-35l-467 -789v-610h-344v610zM287 1569l215 340h270l215 -340v-37h-239l-109 190h-4l-111 -190h-237v37z" />
    <glyph glyph-name="ycircumflex" unicode="&#x177;" horiz-adv-x="1105" 
d="M373 63l-381 926v35h348l211 -555h4l211 555h346v-35l-483 -1186q-64 -156 -165 -236.5t-263 -80.5q-23 0 -51 4l-127 305q39 -8 108 -8q74 0 112 28.5t64 86.5zM203 1163v37l227 363h246l227 -363v-37h-237l-111 191h-4l-109 -191h-239z" />
    <glyph glyph-name="Ydieresis" unicode="&#x178;" horiz-adv-x="1269" 
d="M-6 1434h348l293 -494l291 494h348v-35l-469 -789v-610h-342v610l-469 789v35zM844 1534q-71 0 -122.5 50.5t-51.5 123.5q0 72 51.5 124t122.5 52q73 0 124.5 -52t51.5 -124q0 -73 -51 -123.5t-125 -50.5zM250 1708q0 71 51.5 123.5t122.5 52.5q72 0 124 -52.5t52 -123.5
q0 -73 -51.5 -123.5t-124.5 -50.5q-72 0 -123 50.5t-51 123.5z" />
    <glyph glyph-name="Zacute" unicode="&#x179;" horiz-adv-x="1265" 
d="M1006 1872l-297 -340h-256v37l233 340h320v-37zM43 0l-2 152l709 966h-670v316h1091v-304l-598 -815h629l-22 -315h-1137z" />
    <glyph glyph-name="zacute" unicode="&#x17a;" horiz-adv-x="935" 
d="M883 293l-15 -293h-817v147l410 584h-393v293h798v-225l-354 -506h371zM854 1511l-283 -327h-256v37l234 342h305v-52z" />
    <glyph glyph-name="Zdotaccent" unicode="&#x17b;" horiz-adv-x="1265" 
d="M43 0l-2 152l709 966h-670v316h1091v-304l-598 -815h625l-20 -315h-1135zM451 1710q0 76 52 130t130 54q76 0 129 -54t53 -130q0 -79 -52.5 -130.5t-129.5 -51.5q-79 0 -130.5 51t-51.5 131z" />
    <glyph glyph-name="zdotaccent" unicode="&#x17c;" horiz-adv-x="935" 
d="M883 293l-15 -293h-817v147l408 584h-391v293h798v-225l-354 -506h371zM272 1364q0 83 57.5 143t143.5 60q81 0 140 -60.5t59 -142.5q0 -85 -58 -141t-141 -56q-88 0 -144.5 55.5t-56.5 141.5z" />
    <glyph glyph-name="Zcaron" unicode="&#x17d;" horiz-adv-x="1265" 
d="M41 152l709 966h-670v316h1091v-304l-598 -815h625l-20 -315h-1135zM276 1909h238l111 -189h4l108 189h240v-37l-215 -340h-270l-216 340v37z" />
    <glyph glyph-name="zcaron" unicode="&#x17e;" horiz-adv-x="935" 
d="M868 0h-817v147l410 584h-393v293h800l-2 -225l-354 -506h371zM119 1526v37h239l111 -191h4l109 191h239v-37l-227 -363h-246z" />
    <glyph glyph-name="longs" unicode="&#x17f;" horiz-adv-x="813" 
d="M745 1563v-301q-64 14 -122 14q-129 0 -129 -113v-1163h-336v1174q0 212 106 311.5t297 99.5q71 0 184 -22z" />
    <glyph glyph-name="florin" unicode="&#x192;" horiz-adv-x="999" 
d="M-63 -221q71 -31 137 -31h2q55 0 92.5 29.5t44.5 87.5l88 612h-188v262l227 23l39 280q33 207 133 309.5t279 102.5q54 0 111 -10.5t91 -28.5v-297q-64 31 -137 31h-4q-121 0 -139 -117l-37 -270h223v-285h-262l-88 -622q-28 -203 -126.5 -307.5t-277.5 -104.5
q-50 0 -111 10.5t-97 24.5v301z" />
    <glyph glyph-name="Aringacute" unicode="&#x1fa;" horiz-adv-x="1423" 
d="M0 0v37l549 1397h321l553 -1397v-37h-342l-92 242h-559l-90 -242h-340zM709 1475q-103 0 -175.5 71.5t-72.5 175.5q0 103 72.5 175.5t175.5 72.5q102 0 175.5 -73t73.5 -175q0 -103 -73.5 -175t-175.5 -72zM580 2003v37l233 340h317v-37l-294 -340h-256zM709 1010
l-185 -496h369l-180 496h-4zM639 1720q0 -31 20 -52t50 -21q33 0 52 20.5t19 52.5q0 33 -19 54.5t-52 21.5q-31 0 -50.5 -21.5t-19.5 -54.5z" />
    <glyph glyph-name="aringacute" unicode="&#x1fb;" horiz-adv-x="1099" 
d="M43 274q0 72 25 129t67 94t100 61t120 34t132 10q72 0 172 -14v16q0 84 -42.5 117t-145.5 33q-173 0 -299 -72l-16 287q96 37 178 56t190 19q245 0 357 -108t112 -313v-623h-334v100q-63 -56 -129.5 -88t-167.5 -32q-151 0 -235 79t-84 215zM295 1382q0 103 72.5 174.5
t175.5 71.5q102 0 176 -72t74 -174q0 -103 -74 -175t-176 -72q-103 0 -175.5 71.5t-72.5 175.5zM410 1724l233 340h320v-36l-297 -340h-256v36zM543 406q-78 0 -120 -25.5t-42 -71.5q0 -39 29 -60.5t77 -21.5q80 0 172 62v104q-63 13 -116 13zM543 1454q-30 0 -50 -21.5
t-20 -52.5t20 -52t50 -21q33 0 52 20.5t19 52.5t-19 53t-52 21z" />
    <glyph glyph-name="AEacute" unicode="&#x1fc;" horiz-adv-x="1939" 
d="M328 0h-340v37l688 1397h1171v-312h-651v-250h619v-305h-619v-254h668l-19 -313h-993v242h-406zM969 1569l233 340h320v-37l-297 -340h-256v37zM580 514h272v537h-6z" />
    <glyph glyph-name="aeacute" unicode="&#x1fd;" horiz-adv-x="1722" 
d="M436 -20q-194 0 -293.5 79t-99.5 220q0 71 25 127t67.5 92t100.5 60t120.5 34t132.5 10t170 -14v16q0 84 -42.5 117t-143.5 33q-175 0 -301 -72l-16 287q66 26 106.5 39t104.5 24.5t131 11.5q232 0 360 -118q134 118 336 118q211 0 337 -138t126 -390v-96h-645
q52 -152 254 -152q36 0 67.5 1.5t63.5 6t50.5 7t51.5 11t41.5 11t45.5 13.5t40 12v-252q-169 -98 -379 -98q-254 0 -405 129q-102 -66 -192.5 -97.5t-213.5 -31.5zM942 1184h-256v37l234 340h319v-37zM545 406q-79 0 -121.5 -25.5t-42.5 -71.5q0 -39 31.5 -60.5t87.5 -21.5
q105 0 198 76l-24 90q-67 13 -129 13zM1001 629h332v4q0 66 -40 114t-113 48q-67 0 -114.5 -42t-64.5 -124z" />
    <glyph glyph-name="Oslashacute" unicode="&#x1fe;" horiz-adv-x="1548" 
d="M219 250q-162 205 -162 467q0 146 55 281.5t149 236.5t228.5 161t284.5 60q219 0 400 -125l126 146l158 -131l-135 -154q168 -208 168 -475q0 -117 -35 -228t-100 -203t-152 -161.5t-198.5 -108.5t-231.5 -39q-220 0 -405 129l-107 -120l-160 133zM1090 928l-504 -576
q83 -57 188 -57q85 0 156 38t115.5 99.5t69 135.5t24.5 149q0 110 -49 211zM453 516l503 569q-83 54 -182 54q-85 0 -156 -38t-115 -99.5t-68.5 -135.5t-24.5 -149q0 -108 43 -201zM862 1532h-256v37l234 340h319v-37z" />
    <glyph glyph-name="oslashacute" unicode="&#x1ff;" horiz-adv-x="1177" 
d="M184 156q-133 152 -133 356q0 144 67.5 265.5t191.5 194t280 72.5q165 0 301 -86l78 89l108 -95l-78 -90q127 -149 127 -350q0 -144 -67 -265.5t-190.5 -194t-278.5 -72.5q-165 0 -295 81l-88 -100l-111 96zM668 1184h-256v37l233 342h318v-37zM408 412l272 307
q-45 20 -90 20q-93 0 -147 -66.5t-54 -160.5q0 -51 19 -100zM774 606l-268 -303q38 -18 84 -18q91 0 146 67t55 160q0 45 -17 94z" />
    <glyph glyph-name="uni0218" unicode="&#x218;" horiz-adv-x="1181" 
d="M1069 1331l-29 -317q-225 139 -422 139q-99 0 -146.5 -34.5t-47.5 -90.5q0 -29 24.5 -52t65.5 -39.5t94 -33t111.5 -35.5t117.5 -42.5t112 -59t94 -80t65.5 -110.5t24.5 -146q0 -216 -146 -334.5t-401 -118.5q-261 0 -502 134v317q131 -70 246.5 -109.5t240.5 -39.5
q116 0 172 38.5t56 100.5q0 36 -30.5 63.5t-80.5 44.5t-113.5 37.5t-130 40.5t-130 55t-113.5 79t-80.5 116t-30.5 162q0 192 141.5 316t372.5 124q236 0 465 -125zM391 -510l90 375h273v-35l-119 -340h-244z" />
    <glyph glyph-name="uni0219" unicode="&#x219;" horiz-adv-x="911" 
d="M68 78v278q195 -105 354 -108q110 0 110 57q0 25 -25.5 43t-66.5 30.5t-90.5 26.5t-99 37t-90.5 54.5t-66.5 86t-25.5 126.5q0 156 112.5 245.5t296.5 89.5q182 0 324 -77l-21 -269q-138 78 -276 78q-44 0 -74.5 -13t-30.5 -38q0 -21 25.5 -36.5t66.5 -27.5t90.5 -26
t99 -38t90.5 -57t67 -89t26 -129q-1 -159 -113 -250.5t-300 -91.5q-105 0 -208 28t-175 70zM252 -510l90 375h272v-35l-118 -340h-244z" />
    <glyph glyph-name="uni021A" unicode="&#x21a;" horiz-adv-x="1173" 
d="M27 1118v316h1122l-23 -316h-368l2 -1118h-344v1118h-389zM608 -510h-243l88 375h274v-35z" />
    <glyph glyph-name="uni021B" unicode="&#x21b;" horiz-adv-x="776" 
d="M27 1024h131l2 293h323v-293h226l-19 -287h-207v-381q0 -41 20 -56t64 -15q53 0 133 18v-283q-109 -40 -221 -40q-329 0 -329 311v446h-121zM477 -510h-244l91 375h272v-35z" />
    <glyph glyph-name="uni0237" unicode="&#x237;" horiz-adv-x="557" 
d="M166 -526l-201 186q77 64 112.5 125t35.5 172v1067h333v-1069q0 -171 -71 -284.5t-209 -196.5z" />
    <glyph glyph-name="circumflex" unicode="&#x2c6;" horiz-adv-x="708" 
d="M4 1532v37l215 340h270l216 -340v-37h-238l-111 190h-4l-108 -190h-240z" />
    <glyph glyph-name="caron" unicode="&#x2c7;" horiz-adv-x="577" 
d="M154 1532l-215 340v37h239l109 -189h4l108 189h240v-37l-215 -340h-270z" />
    <glyph glyph-name="uni02C9" unicode="&#x2c9;" horiz-adv-x="694" 
d="M37 1583v258h620v-258h-620z" />
    <glyph glyph-name="breve" unicode="&#x2d8;" horiz-adv-x="620" 
d="M-39 1880h215q14 -139 133 -139q121 0 135 139h215q-20 -186 -108 -272t-242 -86q-152 0 -240 86t-108 272z" />
    <glyph glyph-name="dotaccent" unicode="&#x2d9;" horiz-adv-x="434" 
d="M25 1710q0 80 55 136.5t137 56.5q79 0 136 -56.5t57 -136.5q0 -82 -56.5 -137t-136.5 -55q-83 0 -137.5 54.5t-54.5 137.5z" />
    <glyph glyph-name="ring" unicode="&#x2da;" horiz-adv-x="505" 
d="M4 1722q0 103 73.5 175.5t176.5 72.5q100 0 174 -73t74 -175q0 -103 -73.5 -175t-174.5 -72q-103 0 -176.5 71.5t-73.5 175.5zM182 1720q0 -31 20 -52t52 -21t51 21t19 52q0 33 -19 54.5t-51 21.5t-52 -21.5t-20 -54.5z" />
    <glyph glyph-name="ogonek" unicode="&#x2db;" horiz-adv-x="522" 
d="M444 -285l-22 -194q-107 -35 -184 -35q-117 0 -184.5 60.5t-67.5 156.5q0 92 61 179.5t172 160.5h264v-43q-268 -162 -268 -272q0 -52 64 -52q55 0 165 39z" />
    <glyph glyph-name="tilde" unicode="&#x2dc;" horiz-adv-x="817" 
d="M422 1829l82 -49q28 -19 53 -19q23 0 26 25t-12 94h220q33 -176 -25 -269t-182 -93q-101 0 -199 65l-82 49q-33 19 -53 19q-23 0 -26 -25t12 -94h-220q-33 176 25 269t182 93q97 0 199 -65z" />
    <glyph glyph-name="hungarumlaut" unicode="&#x2dd;" horiz-adv-x="602" 
d="M-14 1532l182 377h289l-258 -377h-213zM305 1532l182 377h263v-35l-232 -342h-213z" />
    <glyph glyph-name="uni0394" unicode="&#x394;" horiz-adv-x="1413" 
d="M444 311h525l-260 693zM0 0v37l551 1399h311l551 -1401v-35h-1413z" />
    <glyph glyph-name="uni03A9" unicode="&#x3a9;" horiz-adv-x="1718" 
d="M57 309h250q-71 75 -117.5 182.5t-46.5 233.5q0 148 55 282.5t149.5 233t228 157t282.5 58.5q201 0 366.5 -99t259 -266.5t93.5 -365.5q0 -126 -47 -233.5t-119 -182.5h250l-23 -309h-694v250q132 79 206.5 198.5t74.5 268.5q0 105 -40.5 199.5t-126.5 158.5t-200 64
q-86 0 -157 -37.5t-115 -98.5t-68 -135t-24 -151q0 -150 74 -269t206 -198v-250h-694z" />
    <glyph glyph-name="uni03BC" unicode="&#x3bc;" horiz-adv-x="1220" 
d="M111 616h2v408h333v-573q0 -89 27.5 -128.5t87.5 -39.5q62 0 117 34.5t94 85.5v621h336v-1024h-336v147q-56 -68 -144 -113.5t-182 -45.5v-486h-335v1114z" />
    <glyph glyph-name="pi" unicode="&#x3c0;" horiz-adv-x="1261" 
d="M0 735v289h1262l-19 -289h-158v-735h-335v735h-242v-735h-334v735h-174z" />
    <glyph glyph-name="Wgrave" unicode="&#x1e80;" horiz-adv-x="1980" 
d="M-4 1399v35h360l242 -713h4l281 713v2h215v-2l280 -713h4l242 713h361v-35l-488 -1405h-151l-355 891h-2l-356 -891h-152zM565 1909h318l233 -340v-37h-256l-295 340v37z" />
    <glyph glyph-name="wgrave" unicode="&#x1e81;" horiz-adv-x="1542" 
d="M-2 1024h334l149 -422h2l172 422h234l170 -422h2l151 422h334v-35l-377 -1001h-147l-248 577h-4l-250 -577h-145l-377 1001v35zM354 1563h320l233 -342v-37h-256l-297 342v37z" />
    <glyph glyph-name="Wacute" unicode="&#x1e82;" horiz-adv-x="1980" 
d="M-4 1399v35h362l240 -713h4l281 713v2h217v-2l280 -713h2l242 713h363v-35l-488 -1405h-151l-355 891h-4l-354 -891h-154zM858 1569l234 340h319v-37l-297 -340h-256v37z" />
    <glyph glyph-name="wacute" unicode="&#x1e83;" horiz-adv-x="1542" 
d="M-2 989v35h334l149 -422h2l172 422h234l170 -422h2l151 422h334v-35l-377 -1001h-147l-248 577h-4l-250 -577h-145zM639 1221l233 342h306v-52l-283 -327h-256v37z" />
    <glyph glyph-name="Wdieresis" unicode="&#x1e84;" horiz-adv-x="1980" 
d="M481 -6l-485 1405v35h360l242 -713h4l281 713v2h215v-2l280 -713h4l242 713h361v-35l-486 -1405h-153l-355 891h-2l-356 -891h-152zM1200 1538q-73 0 -124.5 50.5t-51.5 123.5q0 72 52 125t124 53t123 -53t51 -125q0 -73 -51 -123.5t-123 -50.5zM778 1538
q-72 0 -123 50.5t-51 123.5q0 72 51 125t123 53t124 -53t52 -125q0 -73 -51.5 -123.5t-124.5 -50.5z" />
    <glyph glyph-name="wdieresis" unicode="&#x1e85;" horiz-adv-x="1542" 
d="M-2 1024h334l149 -422h2l172 422h232l172 -422h2l149 422h334v-35l-375 -1001h-147l-248 577h-4l-250 -577h-145l-377 1001v35zM981 1214q-72 0 -124 51t-52 124q0 72 52 125t124 53t124 -53t52 -125q0 -73 -52 -124t-124 -51zM561 1214q-72 0 -124 51t-52 124
q0 72 52 125t124 53t124 -53t52 -125q0 -73 -52 -124t-124 -51z" />
    <glyph glyph-name="Ygrave" unicode="&#x1ef2;" horiz-adv-x="1269" 
d="M463 610l-467 789v35h348l291 -494l291 494h348v-35l-467 -789v-610h-344v610zM539 1532l-297 340v37h319l234 -340v-37h-256z" />
    <glyph glyph-name="ygrave" unicode="&#x1ef3;" horiz-adv-x="1105" 
d="M-8 1024h348l211 -555h4l211 555h348v-35l-485 -1186q-64 -156 -165 -236.5t-263 -80.5q-23 0 -51 4l-127 305q39 -8 108 -8q74 0 112 28.5t64 86.5l66 161l-381 926v35zM158 1526v37h319l234 -342v-37h-256z" />
    <glyph glyph-name="endash" unicode="&#x2013;" horiz-adv-x="1245" 
d="M1178 506h-1110v297h1110v-297z" />
    <glyph glyph-name="emdash" unicode="&#x2014;" horiz-adv-x="1751" 
d="M1683 506h-1615v297h1615v-297z" />
    <glyph glyph-name="uni2015" unicode="&#x2015;" horiz-adv-x="1245" 
d="M1178 506h-1110v297h1110v-297z" />
    <glyph glyph-name="quoteleft" unicode="&#x2018;" horiz-adv-x="528" 
d="M500 1475l-178 -748h-293v35l178 713h293z" />
    <glyph glyph-name="quoteright" unicode="&#x2019;" horiz-adv-x="528" 
d="M29 725l178 750h293v-35l-178 -715h-293z" />
    <glyph glyph-name="quotesinglbase" unicode="&#x201a;" horiz-adv-x="532" 
d="M-20 -401l178 747h293v-35l-179 -712h-292z" />
    <glyph glyph-name="quotedblleft" unicode="&#x201c;" horiz-adv-x="968" 
d="M762 725h-293v37l178 713h293zM29 762l178 713h293l-178 -750h-293v37z" />
    <glyph glyph-name="quotedblright" unicode="&#x201d;" horiz-adv-x="966" 
d="M762 727h-293l178 748h293v-35zM29 727l178 748h293v-35l-178 -713h-293z" />
    <glyph glyph-name="quotedblbase" unicode="&#x201e;" horiz-adv-x="972" 
d="M713 -401h-293l178 747h293v-35zM-20 -401l178 747h293v-35l-179 -712h-292z" />
    <glyph glyph-name="dagger" unicode="&#x2020;" horiz-adv-x="886" 
d="M276 807h-276v309h274v318h334v-318h277v-309h-281v-131l-49 -1174h-227l-52 1172v133z" />
    <glyph glyph-name="daggerdbl" unicode="&#x2021;" horiz-adv-x="886" 
d="M0 1116h276v318h334v-318h275v-309h-275v-221h275v-310h-285v-774h-313v774h-287v310h276v221h-276v309z" />
    <glyph glyph-name="bullet" unicode="&#x2022;" horiz-adv-x="557" 
d="M33 690q0 102 72 174t174 72t173.5 -72t71.5 -174q0 -105 -71 -175.5t-174 -70.5t-174.5 70.5t-71.5 175.5z" />
    <glyph glyph-name="ellipsis" unicode="&#x2026;" horiz-adv-x="1507" 
d="M86 172q0 -82 55.5 -137t137.5 -55t140 55.5t58 136.5q0 82 -58 140.5t-140 58.5q-81 0 -137 -58.5t-56 -140.5zM557 172q0 82 56 140.5t137 58.5q82 0 140 -58.5t58 -140.5q0 -81 -58 -136.5t-140 -55.5t-137.5 55t-55.5 137zM1030 172q0 82 56 140.5t139 58.5
q82 0 140 -58.5t58 -140.5q0 -81 -58 -136.5t-140 -55.5q-83 0 -139 55t-56 137z" />
    <glyph glyph-name="perthousand" unicode="&#x2030;" horiz-adv-x="2467" 
d="M399 723q-142 0 -244 105.5t-102 261.5q0 157 102 261.5t244 104.5q144 0 247.5 -104.5t103.5 -261.5q0 -156 -104 -261.5t-247 -105.5zM399 958q50 0 82.5 38t32.5 96q0 57 -32.5 94t-82.5 37q-48 0 -81 -37.5t-33 -93.5q0 -58 33 -96t81 -38zM502 -4h-262v27l929 1402
h263v-20zM1274 -23q-142 0 -245 105.5t-103 261.5q0 157 103 262t245 105q144 0 247 -105t103 -262q0 -156 -103.5 -261.5t-246.5 -105.5zM1274 213q50 0 82.5 37.5t32.5 95.5t-32.5 94.5t-82.5 36.5q-48 0 -81.5 -37t-33.5 -94q0 -58 33.5 -95.5t81.5 -37.5zM2062 -23
q-143 0 -246.5 105.5t-103.5 261.5q0 157 103 262t247 105q142 0 245 -105t103 -262q0 -156 -103 -261.5t-245 -105.5zM2060 213q50 0 82.5 37.5t32.5 95.5t-32.5 94.5t-82.5 36.5q-48 0 -81 -36.5t-33 -94.5t33 -95.5t81 -37.5z" />
    <glyph glyph-name="guilsinglleft" unicode="&#x2039;" horiz-adv-x="632" 
d="M0 481v103l344 440l236 -141l-258 -351l258 -352l-236 -141z" />
    <glyph glyph-name="guilsinglright" unicode="&#x203a;" horiz-adv-x="632" 
d="M633 584v-103l-344 -442l-236 141l258 352l-258 351l234 141z" />
    <glyph glyph-name="uni203D" unicode="&#x203d;" horiz-adv-x="671" 
 />
    <glyph glyph-name="fraction" unicode="&#x2044;" horiz-adv-x="1191" 
d="M262 -4h-262v27l930 1402h262v-20z" />
    <glyph glyph-name="lira" unicode="&#x20a4;" horiz-adv-x="1114" 
d="M190 848l-178 -57v219l178 57v367h324v-263l289 93v-220l-289 -92v-114l289 94v-219l-289 -95v-317q65 0 111.5 11.5t84 39.5t56 81t18.5 132h314q0 -565 -574 -565h-334v514l-178 -57v219l178 57v115z" />
    <glyph glyph-name="Euro" unicode="&#x20ac;" horiz-adv-x="1296" 
d="M113 768h-115v178h141q60 230 231.5 370t417.5 140q131 0 229.5 -23.5t199.5 -78.5l-39 -324q-156 109 -336 109q-251 0 -338 -193h323v-178h-362q-2 -16 -2 -51q0 -42 2 -62h362v-178h-317q88 -182 332 -182q114 0 196.5 29t165.5 82v-340q-104 -48 -197 -68.5
t-219 -20.5q-243 0 -413.5 136.5t-233.5 363.5h-143v178h115q-2 20 -2 62q0 35 2 51z" />
    <glyph glyph-name="uni20BA" unicode="&#x20ba;" horiz-adv-x="1114" 
d="M188 848l-176 -57v219l176 57v367h326v-263l289 93v-220l-289 -92v-114l289 94v-219l-289 -95v-317q65 0 111.5 11.5t84 39.5t56 81t18.5 132h314q0 -565 -574 -565h-334v514l-178 -57v219l176 57v115z" />
    <glyph glyph-name="uni2113" unicode="&#x2113;" horiz-adv-x="854" 
d="M0 569l150 72v428q0 182 89 283.5t257 101.5t255 -97.5t87 -266.5q0 -348 -428 -555l-45 -23v-147q0 -96 36 -138.5t105 -42.5q68 0 118 14.5t117 51.5v-211q-106 -59 -245 -59q-170 0 -258 94.5t-88 277.5v56l-150 -72v233zM365 745q144 70 201 149.5t57 186.5
q0 86 -30 127t-97 41t-99 -44.5t-32 -141.5v-318z" />
    <glyph glyph-name="trademark" unicode="&#x2122;" horiz-adv-x="1169" 
d="M465 1434h188l162 -349h2l164 349h188v-613h-163v353l-158 -353v-2h-64v2l-157 353v-353h-162v613zM-49 1434h479l-8 -152h-150v-461h-163v461h-158v152z" />
    <glyph glyph-name="Omega" unicode="&#x2126;" horiz-adv-x="1718" 
d="M57 309h250q-71 75 -117.5 182.5t-46.5 233.5q0 148 55 283t149.5 233.5t228 156.5t282.5 58q201 0 366.5 -98.5t259 -266.5t93.5 -366q0 -126 -47 -233.5t-119 -182.5h250l-23 -309h-694v250q132 79 206.5 198.5t74.5 268.5q0 105 -40.5 199.5t-126.5 158.5t-200 64
q-69 0 -129 -24.5t-102.5 -65.5t-73 -95.5t-45 -114.5t-14.5 -122q0 -150 74 -269t206 -198v-250h-694z" />
    <glyph glyph-name="estimated" unicode="&#x212e;" horiz-adv-x="1587" 
d="M57 717q0 150 59 287.5t157.5 237.5t235 159t284.5 59t284 -59t235 -159t157.5 -237.5t58.5 -287.5v-80h-1174v-275q71 -104 183 -172.5t256 -68.5q300 0 514 217l104 -121q-117 -116 -265.5 -181t-352.5 -65q-148 0 -284.5 59.5t-235 159.5t-157.5 238t-59 289zM354 786
h873v289q-71 102 -179.5 169t-254.5 67q-144 0 -257.5 -70.5t-181.5 -173.5v-281z" />
    <glyph glyph-name="partialdiff" unicode="&#x2202;" horiz-adv-x="1144" 
d="M1094 696q0 -168 -29.5 -296.5t-92.5 -224.5t-169.5 -145.5t-253.5 -49.5q-219 0 -352.5 134t-133.5 365q0 198 113.5 314t292.5 116q161 0 287 -69q0 144 -74.5 225.5t-228.5 81.5q-151 0 -310 -88l-20 287q175 108 381 108q154 0 269.5 -56t184.5 -159t102.5 -238.5
t33.5 -304.5zM756 555q-82 53 -189 53q-87 0 -128.5 -37t-41.5 -118q0 -79 44 -126.5t130 -47.5q88 0 136.5 79.5t48.5 196.5z" />
    <glyph glyph-name="Delta" unicode="&#x2206;" horiz-adv-x="1413" 
d="M444 311h525l-260 693zM0 0v37l551 1399h311l551 -1401v-35h-1413z" />
    <glyph glyph-name="product" unicode="&#x220f;" horiz-adv-x="1441" 
d="M467 -350h-344v1784h1186v-1784h-344v1474h-498v-1474z" />
    <glyph glyph-name="summation" unicode="&#x2211;" horiz-adv-x="1140" 
d="M16 1391v43h1051v-310h-537l318 -514l-340 -651h590l-35 -309h-1047v43l467 917z" />
    <glyph glyph-name="minus" unicode="&#x2212;" horiz-adv-x="1196" 
d="M1128 504h-1060v299h1060v-299z" />
    <glyph glyph-name="uni2215" unicode="&#x2215;" horiz-adv-x="1191" 
d="M262 -4h-262v27l930 1402h262v-20z" />
    <glyph glyph-name="uni2219" unicode="&#x2219;" horiz-adv-x="520" 
d="M51 688q0 86 61.5 148.5t147.5 62.5q89 0 150 -62t61 -149q0 -89 -61 -149t-150 -60q-87 0 -148 60t-61 149z" />
    <glyph glyph-name="radical" unicode="&#x221a;" horiz-adv-x="1349" 
d="M43 967h449l137 -324h4l393 922h365v-35l-684 -1536h-152l-279 610h-233v363z" />
    <glyph glyph-name="infinity" unicode="&#x221e;" horiz-adv-x="1642" 
d="M678 670q-102 166 -215 166q-69 0 -109.5 -46t-40.5 -114t40.5 -114t109.5 -46q121 0 215 154zM829 829q24 36 44 62.5t55.5 62.5t72 59t88.5 39.5t109 16.5q171 0 282 -104.5t111 -288.5t-111 -288.5t-282 -104.5q-64 0 -126.5 23.5t-111.5 62.5t-84.5 77t-62.5 78
q-162 -241 -369 -241q-170 0 -280.5 104t-110.5 289t110.5 289t280.5 104q83 0 164.5 -42t133 -92.5t87.5 -105.5zM965 686q22 -35 41.5 -60.5t47 -53t59.5 -42t67 -14.5q68 0 108.5 46t40.5 114t-40.5 114t-108.5 46q-64 0 -119.5 -41.5t-95.5 -108.5z" />
    <glyph glyph-name="integral" unicode="&#x222b;" horiz-adv-x="772" 
d="M184 -92v1266q0 212 106 310.5t298 98.5q71 0 184 -22v-299q-77 14 -123 14q-129 0 -129 -113v-1265q0 -412 -403 -412q-72 0 -185 22v299q77 -14 123 -14q129 0 129 115z" />
    <glyph glyph-name="approxequal" unicode="&#x2248;" horiz-adv-x="907" 
d="M455 983q6 -4 21.5 -13.5t21 -12.5t18.5 -11t18 -11t16 -8.5t17 -7.5t15 -5.5t16 -5t15 -2.5t16 -1q40 0 80 25t92 84l59 -195q-52 -68 -106.5 -103.5t-124.5 -35.5q-95 0 -174 51q-50 31 -71 43.5t-50 23.5t-53 11q-80 0 -175 -109l-59 197q51 67 106.5 102t127.5 35
q92 0 174 -51zM455 561q53 -33 71.5 -44t48 -22.5t54.5 -11.5q40 0 80 25t92 84l59 -197q-52 -67 -106 -102t-125 -35q-95 0 -174 51q-7 4 -27 16.5t-26.5 16t-22 12.5t-22 12t-19 8.5t-20.5 7.5t-18 3.5t-19 1.5q-81 0 -175 -108l-59 194q52 68 107 103.5t127 35.5
q92 0 174 -51z" />
    <glyph glyph-name="notequal" unicode="&#x2260;" horiz-adv-x="1015" 
d="M68 559h301l65 174h-366v279h467l88 239h213l-88 -239h200v-279h-301l-65 -174h366v-278h-467l-88 -240h-213l88 240h-200v278z" />
    <glyph glyph-name="lessequal" unicode="&#x2264;" horiz-adv-x="923" 
d="M14 629v323l871 336v-327l-467 -170v-3l467 -167v-328zM14 291h871v-291h-871v291z" />
    <glyph glyph-name="greaterequal" unicode="&#x2265;" horiz-adv-x="923" 
d="M41 293v328l465 167v3l-465 170v327l868 -336v-323zM41 0v291h868v-291h-868z" />
    <glyph glyph-name="lozenge" unicode="&#x25ca;" horiz-adv-x="1243" 
d="M338 717l283 -314l284 314l-284 313zM-16 682v70l604 682h67l605 -682v-70l-605 -682h-67z" />
    <glyph glyph-name="zero.numr" horiz-adv-x="829" 
d="M309 1221q0 -232 107 -232q55 0 79.5 57t24.5 175q0 116 -24.5 172.5t-79.5 56.5q-107 0 -107 -229zM41 1221q0 135 40 242t126.5 173t208.5 66t207.5 -66t125 -172.5t39.5 -242.5q0 -137 -39.5 -244t-125 -173.5t-207.5 -66.5t-208.5 66.5t-126.5 174t-40 243.5z" />
    <glyph glyph-name="one.numr" horiz-adv-x="829" 
d="M743 752h-657v260h199v352l-195 -57v268l389 113h76v-676h188v-260z" />
    <glyph glyph-name="two.numr" horiz-adv-x="829" 
d="M51 752v221q210 93 297.5 178t87.5 178q0 117 -119 117q-107 0 -219 -86v250q62 43 142 67.5t161 24.5q149 0 228.5 -83.5t79.5 -223.5q0 -216 -207 -383h258l-15 -260h-694z" />
    <glyph glyph-name="three.numr" horiz-adv-x="837" 
d="M717 1497l-131 -176q168 -71 168 -254q0 -146 -97 -238t-264 -92q-85 0 -160.5 23t-123.5 53l-15 258q113 -67 236 -67q153 0 153 86q0 51 -54.5 83.5t-154.5 32.5h-14v23l148 198h-299l14 261h594v-191z" />
    <glyph glyph-name="four.numr" horiz-adv-x="829" 
d="M29 1114l299 574h262l-268 -517h120v168h211l-6 -168h125l-16 -243h-107l4 -176h-235v176h-348z" />
    <glyph glyph-name="five.numr" horiz-adv-x="829" 
d="M96 801l-22 258q141 -64 262 -64q131 0 131 70q0 68 -113 68q-55 0 -200 -19h-31l12 574h567l-14 -242h-315l-2 -109q92 9 108 9q131 0 195.5 -71t64.5 -194q0 -159 -99.5 -251.5t-264.5 -92.5q-128 0 -279 64z" />
    <glyph glyph-name="six.numr" horiz-adv-x="829" 
d="M78 1200q0 114 21.5 204t66.5 158t119 104t174 36q138 0 252 -70l-15 -231q-103 57 -209 57q-84 0 -122.5 -39t-38.5 -119q78 50 168 50q116 0 186 -75.5t70 -205.5q0 -152 -90 -242t-238 -90q-92 0 -159 33.5t-107 96.5t-59 145.5t-19 187.5zM328 1098q0 -142 98 -142
q40 0 62 26.5t22 66.5q0 39 -22 62.5t-62 23.5q-55 0 -98 -37z" />
    <glyph glyph-name="seven.numr" horiz-adv-x="829" 
d="M387 752h-272l329 671h-354l16 265h637v-207z" />
    <glyph glyph-name="eight.numr" horiz-adv-x="829" 
d="M416 1128q-46 0 -71.5 -23t-25.5 -61q0 -40 24.5 -64t72.5 -24q46 0 70 24t24 64q0 38 -24.5 61t-69.5 23zM416 1487q-43 0 -62.5 -21t-19.5 -51q0 -32 21 -54t61 -22q39 0 58.5 22t19.5 54q0 31 -18 51.5t-60 20.5zM416 737q-158 0 -249 77.5t-91 195.5q0 43 12.5 80
t30.5 61t41 43t40.5 28.5t32.5 14.5v2q-13 4 -33.5 18t-43.5 37.5t-39.5 61.5t-16.5 80q0 116 79 191t237 75q154 0 232.5 -75.5t78.5 -190.5q0 -42 -16 -79.5t-39 -61t-42 -37.5t-32 -19v-2q20 -7 42.5 -21.5t49.5 -40.5t44.5 -69.5t17.5 -95.5q0 -118 -90 -195.5
t-246 -77.5z" />
    <glyph glyph-name="nine.numr" horiz-adv-x="829" 
d="M748 1247q0 -237 -93 -373.5t-288 -136.5q-133 0 -250 70l12 233q96 -57 205 -57q88 0 127 39.5t39 120.5q-73 -47 -164 -47q-118 0 -188 74.5t-70 203.5q0 153 89 240.5t239 87.5q342 0 342 -455zM500 1346q0 137 -101 137q-39 0 -61.5 -23.5t-22.5 -62.5
q0 -40 22.5 -63t65.5 -23q56 0 97 35z" />
    <glyph glyph-name="N.alt" horiz-adv-x="1562" 
d="M465 0h-342v1434h332l641 -852v852h344v-1434h-330l-645 856v-856z" />
    <glyph glyph-name="K.alt" horiz-adv-x="1384" 
d="M467 0h-344v1434h344v-553h2l494 553h399v-35l-500 -565l506 -797v-37h-385l-377 586l-139 -156v-430z" />
    <glyph glyph-name="M.alt" horiz-adv-x="1890" 
d="M465 0h-342v1434h471l348 -971h6l348 971h471v-1434h-342v891l-327 -891h-305l-328 891v-891z" />
    <glyph glyph-name="V.alt" horiz-adv-x="1359" 
d="M-20 1399v35h346l350 -945h6l352 945h346v-35l-538 -1399h-324z" />
    <glyph glyph-name="W.alt" horiz-adv-x="1992" 
d="M408 0l-408 1399v35h346l234 -816h4l252 816h323l252 -816h4l234 816h344v-35l-408 -1399h-315l-273 897l-272 -897h-317z" />
    <glyph glyph-name="k.alt" horiz-adv-x="1183" 
d="M446 0h-333v1565h333v-895h7l325 354h371v-35l-332 -371l354 -581v-37h-360l-238 385l-127 -133v-252z" />
    <glyph glyph-name="v.alt" horiz-adv-x="1071" 
d="M383 0l-391 989v35h336l204 -559h5l204 559h338v-35l-391 -989h-305z" />
    <glyph glyph-name="w.alt" horiz-adv-x="1482" 
d="M303 0l-305 989v35h326l139 -494h4l145 494h258l148 -494h4l137 494h326v-35l-305 -989h-265l-172 565h-4l-172 -565h-264z" />
    <glyph glyph-name="Z.alt" horiz-adv-x="1261" 
d="M55 0v291l684 827h-645v316h1084v-304l-678 -815h704l-20 -315h-1129z" />
    <glyph glyph-name="a.alt" horiz-adv-x="1239" 
d="M492 -20q-100 0 -183.5 42.5t-139 115t-86 169t-30.5 205.5q0 147 52 266t158 192.5t249 73.5q92 0 167.5 -32.5t113.5 -65.5v78h335v-1024h-335v113q-69 -65 -139.5 -99t-161.5 -34zM391 512q0 -99 54.5 -163t158.5 -64q106 0 189 63v320q-76 71 -189 71
q-104 0 -158.5 -64t-54.5 -163z" />
    <glyph glyph-name="z.alt" horiz-adv-x="935" 
d="M883 293l-15 -293h-817v217l381 516h-364v291h798v-225l-368 -506h385z" />
    <glyph glyph-name="ampersand.alt" horiz-adv-x="1552" 
d="M43 360q0 70 19 128t48.5 97.5t76 73.5t90 55t102.5 42q-74 157 -74 297q-1 182 111 292.5t297 110.5q193 0 294 -93.5t101 -258.5q0 -83 -25 -151.5t-72 -119t-98.5 -86.5t-119.5 -69q83 -109 196 -199q70 120 70 291h391v-244h-195q-20 -96 -63 -176q168 -84 326 -84
v-266q-244 0 -502 129q-184 -149 -457 -149q-229 0 -372.5 101.5t-143.5 278.5zM762 293q-149 118 -254 256q-65 -35 -99 -74.5t-34 -93.5q0 -60 52.5 -90.5t147.5 -30.5q99 0 187 33zM672 868q135 79 135 213q0 111 -86 111q-98 0 -98 -127q0 -86 49 -197z" />
    <glyph glyph-name="agrave.alt" horiz-adv-x="1239" 
d="M492 -20q-100 0 -183.5 42.5t-139 115t-86 169t-30.5 205.5q0 147 52 266t158 192.5t249 73.5q92 0 167.5 -32.5t113.5 -65.5v78h335v-1024h-335v113q-69 -65 -139.5 -99t-161.5 -34zM604 739q-104 0 -158.5 -64t-54.5 -163t54.5 -163t158.5 -64q108 0 189 61v322
q-76 71 -189 71zM258 1526v37h320l233 -342v-37h-256z" />
    <glyph glyph-name="aacute.alt" horiz-adv-x="1239" 
d="M492 -20q-100 0 -183.5 42.5t-139 115t-86 169t-30.5 205.5q0 147 52 266t158 192.5t249 73.5q92 0 167.5 -32.5t113.5 -65.5v78h335v-1024h-335v113q-69 -65 -139.5 -99t-161.5 -34zM604 739q-104 0 -158.5 -64t-54.5 -163t54.5 -163t158.5 -64q108 0 189 61v322
q-76 71 -189 71zM682 1184h-256v37l233 342h318v-37z" />
    <glyph glyph-name="acircumflex.alt" horiz-adv-x="1239" 
d="M492 -20q-100 0 -183.5 42.5t-139 115t-86 169t-30.5 205.5q0 147 52 266t158 192.5t249 73.5q92 0 167.5 -32.5t113.5 -65.5v78h335v-1024h-335v113q-69 -65 -139.5 -99t-161.5 -34zM287 1200l227 363h246l227 -363v-37h-239l-109 191h-4l-111 -191h-237v37zM604 739
q-104 0 -158.5 -64t-54.5 -163t54.5 -163t158.5 -64q108 0 189 61v322q-76 71 -189 71z" />
    <glyph glyph-name="atilde.alt" horiz-adv-x="1239" 
d="M492 -20q-100 0 -183.5 42.5t-139 115t-86 169t-30.5 205.5q0 147 52 266t158 192.5t249 73.5q92 0 167.5 -32.5t113.5 -65.5v78h335v-1024h-335v113q-69 -65 -139.5 -99t-161.5 -34zM256 1198q-31 173 25 269t168 96q37 0 75 -13t62.5 -27t72.5 -44l50 -31
q24 -18 49 -18q27 0 31.5 23t-11.5 91h219q33 -174 -21.5 -268t-168.5 -94q-53 0 -98.5 19.5t-112.5 62.5l-49 30q-28 21 -51 21q-26 0 -30.5 -24.5t11.5 -92.5h-221zM391 512q0 -99 54.5 -163t158.5 -64q108 0 189 61v322q-76 71 -189 71q-104 0 -158.5 -64t-54.5 -163z
" />
    <glyph glyph-name="adieresis.alt" horiz-adv-x="1239" 
d="M53 512q0 147 52 266t158 192.5t249 73.5q92 0 167.5 -32.5t113.5 -65.5v78h335v-1024h-335v113q-69 -65 -139.5 -99t-161.5 -34q-100 0 -183.5 42.5t-139 115t-86 169t-30.5 205.5zM604 739q-104 0 -158.5 -64t-54.5 -163t54.5 -163t158.5 -64q108 0 189 61v322
q-76 71 -189 71zM842 1214q-72 0 -123 51t-51 124q0 72 51 125t123 53q73 0 124.5 -52.5t51.5 -125.5t-51 -124t-125 -51zM422 1214q-72 0 -123 51t-51 124q0 72 51 125t123 53t124 -53t52 -125q0 -73 -52 -124t-124 -51z" />
    <glyph glyph-name="aring.alt" horiz-adv-x="1239" 
d="M492 -20q-100 0 -183.5 42.5t-139 115t-86 169t-30.5 205.5q0 147 52 266t158 192.5t249 73.5q92 0 167.5 -32.5t113.5 -65.5v78h335v-1024h-335v113q-69 -65 -139.5 -99t-161.5 -34zM377 1382q0 103 72.5 175.5t175.5 72.5q102 0 175.5 -73t73.5 -175q0 -103 -73.5 -175
t-175.5 -72q-103 0 -175.5 71.5t-72.5 175.5zM604 739q-104 0 -158.5 -64t-54.5 -163t54.5 -163t158.5 -64q108 0 189 61v322q-76 71 -189 71zM555 1380q0 -31 20 -52t50 -21q33 0 52 20.5t19 52.5q0 33 -19 53.5t-52 20.5q-31 0 -50.5 -21t-19.5 -53z" />
    <glyph glyph-name="amacron.alt" horiz-adv-x="1239" 
d="M492 -20q-100 0 -183.5 42.5t-139 115t-86 169t-30.5 205.5q0 147 52 266t158 192.5t249 73.5q92 0 167.5 -32.5t113.5 -65.5v78h335v-1024h-335v113q-69 -65 -139.5 -99t-161.5 -34zM604 739q-104 0 -158.5 -64t-54.5 -163t54.5 -163t158.5 -64q108 0 189 61v322
q-76 71 -189 71zM932 1243h-619v258h619v-258z" />
    <glyph glyph-name="abreve.alt" horiz-adv-x="1239" 
d="M492 -20q-100 0 -183.5 42.5t-139 115t-86 169t-30.5 205.5q0 147 52 266t158 192.5t249 73.5q92 0 167.5 -32.5t113.5 -65.5v78h335v-1024h-335v113q-69 -65 -139.5 -99t-161.5 -34zM616 1176q-150 0 -238 92.5t-110 275.5h213q15 -149 135 -149q121 0 136 149h213
q-22 -183 -110.5 -275.5t-238.5 -92.5zM604 739q-104 0 -158.5 -64t-54.5 -163t54.5 -163t158.5 -64q108 0 189 61v322q-76 71 -189 71z" />
    <glyph glyph-name="aogonek.alt" horiz-adv-x="1239" 
d="M53 512q0 147 52 266t158 192.5t249 73.5q92 0 167.5 -32.5t113.5 -65.5v78h335v-1024h-14q-268 -162 -268 -272q0 -50 63 -50q59 0 166 37l-20 -192q-98 -35 -189 -35q-116 0 -182 60t-66 157q0 78 46 154.5t129 142.5v111q-69 -65 -139.5 -99t-161.5 -34
q-100 0 -183.5 42.5t-139 115t-86 169t-30.5 205.5zM391 512q0 -99 54.5 -163t158.5 -64q106 0 189 63v320q-76 71 -189 71q-104 0 -158.5 -64t-54.5 -163z" />
    <glyph glyph-name="aringacute.alt" horiz-adv-x="1239" 
d="M53 512q0 147 52 266t158 192.5t249 73.5q92 0 167.5 -32.5t113.5 -65.5v78h335v-1024h-335v113q-69 -65 -139.5 -99t-161.5 -34q-100 0 -183.5 42.5t-139 115t-86 169t-30.5 205.5zM367 1382q0 103 72.5 175.5t176.5 72.5q100 0 174 -73t74 -175q0 -103 -73.5 -175
t-174.5 -72q-104 0 -176.5 71.5t-72.5 175.5zM391 512q0 -99 54.5 -163t158.5 -64q108 0 189 61v322q-76 71 -189 71q-104 0 -158.5 -64t-54.5 -163zM737 1688h-254v36l232 340h319v-36zM616 1454q-32 0 -51.5 -20.5t-19.5 -53.5q0 -31 19.5 -52t51.5 -21t51 21t19 52
q0 33 -19 53.5t-51 20.5z" />
    <glyph glyph-name="Wcircumflex.alt" horiz-adv-x="1980" 
d="M-6 1399v35h346l233 -816h5l251 816h324l252 -816h4l233 816h345v-35l-408 -1399h-315l-273 897l-272 -897h-318zM641 1532v37l215 340h270l217 -340v-37h-239l-111 190h-4l-108 -190h-240z" />
    <glyph glyph-name="wcircumflex.alt" horiz-adv-x="1482" 
d="M-2 1024h326l139 -494h4l145 494h258l148 -494h4l137 494h326v-35l-305 -989h-265l-172 565h-4l-172 -565h-264l-305 989v35zM391 1163v37l227 363h246l228 -363v-37h-240l-109 191h-4l-110 -191h-238z" />
    <glyph glyph-name="Wgrave.alt" horiz-adv-x="1980" 
d="M401 0l-407 1399v35h346l233 -816h5l251 816h324l252 -816h4l233 816h345v-35l-408 -1399h-315l-273 897l-272 -897h-318zM565 1909h320l231 -340v-37h-254l-297 340v37z" />
    <glyph glyph-name="wgrave.alt" horiz-adv-x="1482" 
d="M303 0l-305 989v35h326l139 -494h4l145 494h258l148 -494h4l137 494h326v-35l-305 -989h-265l-172 565h-4l-172 -565h-264zM621 1184l-297 342v37h319l234 -342v-37h-256z" />
    <glyph glyph-name="Wacute.alt" horiz-adv-x="1980" 
d="M-6 1399v35h346l233 -816h5l251 816h324l252 -816h4l233 816h345v-35l-408 -1399h-315l-273 897l-272 -897h-318zM858 1569l234 340h319v-37l-297 -340h-256v37z" />
    <glyph glyph-name="wacute.alt" horiz-adv-x="1482" 
d="M-2 989v35h326l139 -494h4l145 494h258l148 -494h4l137 494h326v-35l-305 -989h-265l-172 565h-4l-172 -565h-264zM866 1184h-256v37l234 342h305v-52z" />
    <glyph glyph-name="Wdieresis.alt" horiz-adv-x="1980" 
d="M-6 1399v35h346l233 -816h5l251 816h324l252 -816h4l233 816h345v-35l-408 -1399h-315l-273 897l-272 -897h-318zM1026 1712q0 72 51 125t123 53q73 0 124.5 -52.5t51.5 -125.5t-51 -123.5t-125 -50.5q-72 0 -123 50.5t-51 123.5zM606 1712q0 72 51 125t123 53t124 -53
t52 -125q0 -73 -51.5 -123.5t-124.5 -50.5q-72 0 -123 50.5t-51 123.5z" />
    <glyph glyph-name="wdieresis.alt" horiz-adv-x="1482" 
d="M-2 1024h326l139 -494h4l145 494h258l148 -494h4l137 494h326v-35l-305 -989h-265l-172 565h-4l-172 -565h-264l-305 989v35zM950 1214q-72 0 -123 51t-51 124q0 72 51 125t123 53q73 0 124.5 -52.5t51.5 -125.5t-51 -124t-125 -51zM356 1389q0 72 51 125t123 53
t124.5 -53t52.5 -125q0 -73 -52 -124t-125 -51q-72 0 -123 51t-51 124z" />
    <glyph glyph-name="Nacute.alt" horiz-adv-x="1562" 
d="M123 1434h332l641 -852v852h344v-1434h-330l-645 856v-856h-342v1434zM844 1532h-254v37l231 340h320v-37z" />
    <glyph glyph-name="uni0145.alt" horiz-adv-x="1562" 
d="M123 0v1434h332l641 -852v852h344v-1434h-330l-645 856v-856h-342zM821 -510h-243l88 375h274v-35z" />
    <glyph glyph-name="Ncaron.alt" horiz-adv-x="1562" 
d="M123 1434h332l641 -852v852h344v-1434h-330l-645 856v-856h-342v1434zM418 1909h239l109 -189h4l111 189h237v-37l-215 -340h-270l-215 340v37z" />
    <glyph glyph-name="Zacute.alt" horiz-adv-x="1243" 
d="M1006 1872l-297 -340h-256v37l233 340h320v-37zM41 0v291l684 827h-645v316h1083v-304l-678 -815h705l-21 -315h-1128z" />
    <glyph glyph-name="zacute.alt" horiz-adv-x="935" 
d="M854 1511l-283 -327h-256v37l234 342h305v-52zM883 293l-15 -293h-817v217l381 514h-364v293h798v-225l-368 -506h385z" />
    <glyph glyph-name="Zdotaccent.alt" horiz-adv-x="1243" 
d="M451 1710q0 76 52 130t130 54q76 0 129 -54t53 -130q0 -79 -52.5 -130.5t-129.5 -51.5q-79 0 -130.5 51t-51.5 131zM41 0v291l684 827h-645v316h1083v-304l-678 -815h705l-21 -315h-1128z" />
    <glyph glyph-name="zdotaccent.alt" horiz-adv-x="935" 
d="M272 1364q0 83 57.5 143t143.5 60q81 0 140 -60.5t59 -142.5q0 -85 -58 -141t-141 -56q-88 0 -144.5 55.5t-56.5 141.5zM883 293l-15 -293h-817v217l381 514h-364v293h798v-225l-368 -506h385z" />
    <glyph glyph-name="Zcaron.alt" horiz-adv-x="1243" 
d="M1169 0h-1128v291l684 827h-645v316h1083v-304l-678 -815h705zM492 1532l-216 340v37h238l111 -189h4l108 189h240v-37l-215 -340h-270z" />
    <glyph glyph-name="zcaron.alt" horiz-adv-x="935" 
d="M868 0h-817v217l381 514h-364v293h798v-225l-368 -506h385zM119 1526v37h239l111 -191h4l109 191h239v-37l-227 -363h-246z" />
    <glyph glyph-name="uni0136.alt" horiz-adv-x="1384" 
d="M123 0v1434h344v-553h2l494 553h399v-35l-500 -565l506 -797v-37h-385l-377 586l-139 -156v-430h-344zM756 -510h-244l88 375h274v-35z" />
    <glyph glyph-name="uni0137.alt" horiz-adv-x="1183" 
d="M446 0h-333v1565h333v-895h7l325 354h371v-35l-332 -371l354 -581v-37h-360l-238 385l-127 -133v-252zM414 -510l88 375h274v-35l-119 -340h-243z" />
    <glyph glyph-name="kgreenlandic.alt" horiz-adv-x="1183" 
d="M113 1024h333v-354h7l325 354h371v-35l-332 -371l354 -581v-37h-360l-238 385l-127 -133v-252h-333v1024z" />
    <glyph glyph-name="y.alt" horiz-adv-x="1105" 
d="M-8 989v35h348l211 -555h4l211 555h348v-35l-608 -1487h-369l238 561z" />
    <glyph glyph-name="yacute.alt" horiz-adv-x="1105" 
d="M375 63l-383 926v35h348l211 -555h4l211 555h348v-35l-608 -1487h-369zM389 1221l232 342h319v-37l-297 -342h-254v37z" />
    <glyph glyph-name="ydieresis.alt" horiz-adv-x="1105" 
d="M-8 989v35h348l211 -555h4l211 555h348v-35l-608 -1487h-369l238 561zM168 1389q0 72 52 125t124 53t124 -53t52 -125q0 -73 -52 -124t-124 -51t-124 51t-52 124zM764 1214q-72 0 -123 51t-51 124q0 72 51 125t123 53t124 -53t52 -125q0 -73 -52 -124t-124 -51z" />
    <glyph glyph-name="ycircumflex.alt" horiz-adv-x="1105" 
d="M-8 989v35h348l211 -555h4l211 555h348v-35l-608 -1487h-369l238 561zM203 1200l227 363h246l227 -363v-37h-237l-111 191h-4l-109 -191h-239v37z" />
    <glyph glyph-name="ygrave.alt" horiz-adv-x="1105" 
d="M-8 1024h348l211 -555h4l211 555h348v-35l-608 -1487h-369l238 561l-383 926v35zM158 1563h319l234 -342v-37h-256l-297 342v37z" />
    <glyph glyph-name="zero.numr.dnom" horiz-adv-x="829" 
d="M309 469q0 -231 107 -231q55 0 79.5 56.5t24.5 174.5q0 116 -24.5 172.5t-79.5 56.5q-107 0 -107 -229zM41 469q0 135 40 242t126.5 173t208.5 66t207.5 -66t125 -172.5t39.5 -242.5q0 -101 -23 -188t-68 -153t-117 -104t-164 -38t-164.5 38t-118 104t-69 153t-23.5 188z
" />
    <glyph glyph-name="one.numr.dnom" horiz-adv-x="829" 
d="M743 0h-657v260h199v352l-195 -57v268l389 113h76v-676h188v-260z" />
    <glyph glyph-name="two.numr.dnom" horiz-adv-x="829" 
d="M51 0v221q210 93 297.5 178t87.5 179q0 116 -119 116q-102 0 -219 -86v250q137 92 305 92q148 0 227 -84t79 -223q0 -216 -207 -383h258l-15 -260h-694z" />
    <glyph glyph-name="three.numr.dnom" horiz-adv-x="837" 
d="M717 745l-131 -176q168 -71 168 -254q0 -146 -97 -237.5t-264 -91.5q-85 0 -160.5 22.5t-123.5 52.5l-15 258q113 -67 236 -67q153 0 153 86q0 51 -55 84t-154 33h-14v22l148 199h-299l14 260h594v-191z" />
    <glyph glyph-name="four.numr.dnom" horiz-adv-x="829" 
d="M29 362l299 574h262l-268 -516h120v168h211l-6 -168h125l-16 -244h-107l4 -176h-235v176h-348z" />
    <glyph glyph-name="five.numr.dnom" horiz-adv-x="829" 
d="M96 49l-22 258q139 -63 262 -63q72 0 101.5 18t29.5 51q0 68 -113 68q-55 0 -200 -19h-31l12 574h567l-14 -242h-315l-2 -108q82 8 108 8q131 0 195.5 -70.5t64.5 -193.5q0 -159 -99.5 -251.5t-264.5 -92.5q-130 0 -279 63z" />
    <glyph glyph-name="six.numr.dnom" horiz-adv-x="829" 
d="M78 449q0 114 21.5 204t66.5 157.5t119 103.5t174 36q140 0 252 -69l-15 -232q-105 58 -209 58q-84 0 -122.5 -39t-38.5 -119q76 49 168 49q116 0 186 -75.5t70 -205.5q0 -151 -90 -241t-238 -90q-92 0 -159 33.5t-107 96.5t-59 145.5t-19 187.5zM328 346q0 -141 98 -141
q40 0 62 26t22 66q0 39 -22 62.5t-62 23.5q-55 0 -98 -37z" />
    <glyph glyph-name="seven.numr.dnom" horiz-adv-x="829" 
d="M387 0h-272l329 672h-354l16 264h637v-207z" />
    <glyph glyph-name="eight.numr.dnom" horiz-adv-x="829" 
d="M416 377q-46 0 -71.5 -23t-25.5 -61q0 -40 24.5 -64t72.5 -24q46 0 70 24t24 64q0 38 -24.5 61t-69.5 23zM416 735q-44 0 -63 -20.5t-19 -50.5q0 -32 21 -54t61 -22q39 0 58.5 22t19.5 54q0 71 -78 71zM416 -14q-158 0 -249 77t-91 195q0 43 12.5 80t30.5 61t41 43
t40.5 28.5t32.5 14.5v2q-13 4 -33.5 18t-43.5 37.5t-39.5 61.5t-16.5 80q0 116 79 191t237 75q154 0 232.5 -75.5t78.5 -190.5q0 -42 -16 -79.5t-39 -61t-42 -37.5t-32 -19v-2q20 -7 42.5 -21.5t49.5 -40.5t44.5 -69.5t17.5 -95.5q0 -118 -89.5 -195t-246.5 -77z" />
    <glyph glyph-name="nine.numr.dnom" horiz-adv-x="829" 
d="M748 496q0 -237 -93 -373.5t-288 -136.5q-135 0 -250 69l12 234q98 -58 205 -58q88 0 127 39.5t39 120.5q-73 -47 -164 -47q-118 0 -188 74.5t-70 204.5q0 153 89 240t239 87q342 0 342 -454zM500 594q0 137 -101 137q-39 0 -61.5 -23.5t-22.5 -62.5q0 -40 22.5 -63
t65.5 -23q56 0 97 35z" />
    <glyph glyph-name="N.alt_" horiz-adv-x="2537" 
d="M123 1434h332l641 -852v852h334l641 -852v852h344v-1434h-330l-645 856v-856h-330l-645 856v-856h-342v1434z" />
    <glyph glyph-name="f.alt" horiz-adv-x="813" 
d="M10 -340q51 44 78.5 75.5t48.5 88.5t21 133v780h-133v287h133v150q0 411 403 411q71 0 184 -22v-301q-66 14 -122 14q-131 0 -131 -113v-139h262l-13 -287h-249v-782q0 -169 -71 -283t-210 -198z" />
    <glyph glyph-name="J.alt" horiz-adv-x="989" 
d="M53 59v314q83 -40 145.5 -58t135.5 -18q117 0 165 49t48 170v602h-328l21 316h651v-924q0 -533 -508 -533q-90 0 -164 19t-166 63z" />
    <glyph glyph-name="g.alt" horiz-adv-x="1005" 
d="M2 109q0 85 50.5 139.5t135.5 79.5q-133 123 -133 301q0 173 126.5 294t307.5 121q66 0 138 -20h397v-233l-145 22q43 -88 43 -184q0 -173 -125.5 -295.5t-307.5 -122.5h-55q-153 0 -153 -51q0 -26 42 -40t111 -14h184q200 0 311 -78.5t111 -224.5q0 -153 -118.5 -240
t-329.5 -87h-117q-124 0 -213.5 21.5t-145 73.5t-55.5 132q0 132 156 182q-97 20 -156 75.5t-59 148.5zM489 776q-62 0 -103.5 -41.5t-41.5 -105.5t41.5 -106t103.5 -42t103 42t41 106t-41 105.5t-103 41.5zM586 -127h-90q-71 0 -109.5 -18.5t-38.5 -51.5q0 -34 39.5 -52.5
t110.5 -18.5h88q153 0 153 69q0 72 -153 72z" />
    <glyph glyph-name="gcircumflex.alt" horiz-adv-x="1007" 
d="M2 109q0 85 50.5 139.5t135.5 79.5q-133 123 -133 301q0 173 126.5 294t307.5 121q66 0 138 -20h397v-233l-145 22q43 -88 43 -184q0 -173 -125.5 -295.5t-307.5 -122.5h-55q-153 0 -153 -51q0 -26 42 -40t111 -14h184q200 0 311 -78.5t111 -224.5q0 -153 -118.5 -240
t-329.5 -87h-117q-124 0 -213.5 21.5t-145 73.5t-55.5 132q0 132 156 182q-97 20 -156 75.5t-59 148.5zM158 1200l227 363h246l227 -363v-37h-240l-108 191h-4l-109 -191h-239v37zM344 629q0 -64 41.5 -106t103.5 -42t103 42t41 106t-41 105.5t-103 41.5t-103.5 -41.5
t-41.5 -105.5zM586 -127h-90q-71 0 -109.5 -18.5t-38.5 -51.5q0 -34 39.5 -52.5t110.5 -18.5h88q153 0 153 69q0 72 -153 72z" />
    <glyph glyph-name="gbreve.alt" horiz-adv-x="1007" 
d="M2 109q0 85 50.5 139.5t135.5 79.5q-133 123 -133 301q0 173 126.5 294t307.5 121q66 0 138 -20h397v-233l-145 22q43 -88 43 -184q0 -173 -125.5 -295.5t-307.5 -122.5h-55q-153 0 -153 -51q0 -26 42 -40t111 -14h184q200 0 311 -78.5t111 -224.5q0 -153 -118.5 -240
t-329.5 -87h-117q-124 0 -213.5 21.5t-145 73.5t-55.5 132q0 132 156 182q-97 20 -156 75.5t-59 148.5zM156 1544h213q15 -149 135 -149t135 149h213q-22 -183 -110 -275.5t-238 -92.5t-238 92.5t-110 275.5zM489 776q-62 0 -103.5 -41.5t-41.5 -105.5t41.5 -106t103.5 -42
t103 42t41 106t-41 105.5t-103 41.5zM586 -127h-90q-71 0 -109.5 -18.5t-38.5 -51.5q0 -34 39.5 -52.5t110.5 -18.5h88q153 0 153 69q0 72 -153 72z" />
    <glyph glyph-name="gdotaccent.alt" horiz-adv-x="1007" 
d="M2 109q0 85 50.5 139.5t135.5 79.5q-133 123 -133 301q0 173 126.5 294t307.5 121q66 0 138 -20h397v-233l-145 22q43 -88 43 -184q0 -173 -125.5 -295.5t-307.5 -122.5h-55q-153 0 -153 -51q0 -26 42 -40t111 -14h184q200 0 311 -78.5t111 -224.5q0 -153 -118.5 -240
t-329.5 -87h-117q-124 0 -213.5 21.5t-145 73.5t-55.5 132q0 132 156 182q-97 20 -156 75.5t-59 148.5zM496 1167q-88 0 -144.5 55.5t-56.5 141.5q0 83 57.5 143t143.5 60q82 0 140 -60t58 -143q0 -85 -57 -141t-141 -56zM344 629q0 -64 41.5 -106t103.5 -42t103 42t41 106
t-41 105.5t-103 41.5t-103.5 -41.5t-41.5 -105.5zM586 -127h-90q-71 0 -109.5 -18.5t-38.5 -51.5q0 -34 39.5 -52.5t110.5 -18.5h88q153 0 153 69q0 72 -153 72z" />
    <glyph glyph-name="uni0123.alt" horiz-adv-x="1007" 
d="M2 109q0 85 50.5 139.5t135.5 79.5q-133 123 -133 301q0 173 126.5 294t307.5 121q66 0 138 -20h397v-233l-145 22q43 -88 43 -184q0 -173 -125.5 -295.5t-307.5 -122.5h-55q-153 0 -153 -51q0 -26 42 -40t111 -14h184q200 0 311 -78.5t111 -224.5q0 -153 -118.5 -240
t-329.5 -87h-117q-124 0 -213.5 21.5t-145 73.5t-55.5 132q0 132 156 182q-97 20 -156 75.5t-59 148.5zM635 1186h-273v37l117 340h246zM489 776q-62 0 -103.5 -41.5t-41.5 -105.5t41.5 -106t103.5 -42t103 42t41 106t-41 105.5t-103 41.5zM586 -127h-90q-71 0 -109.5 -18.5
t-38.5 -51.5q0 -34 39.5 -52.5t110.5 -18.5h88q153 0 153 69q0 72 -153 72z" />
    <glyph glyph-name="Q.alt" horiz-adv-x="1548" 
d="M57 717q0 146 55 281.5t149 236.5t228.5 161t284.5 60q120 0 231 -38.5t198 -108t152.5 -161.5t100.5 -203t35 -228q0 -146 -55 -282t-149 -236.5t-228.5 -161t-284.5 -60.5q-199 0 -365 102.5t-259 272t-93 365.5zM410 717q0 -75 24.5 -149t68.5 -135.5t115 -99.5
t156 -38q84 0 155 38t115.5 99.5t69.5 135.5t25 149t-25 149t-69.5 135.5t-115.5 99.5t-155 38q-85 0 -156 -38t-115 -99.5t-68.5 -135.5t-24.5 -149zM1352 -446h-742l17 313h743z" />
    <glyph glyph-name="Jcircumflex.alt" horiz-adv-x="991" 
d="M53 373q82 -40 144.5 -58t134.5 -18q118 0 166.5 49t48.5 170v602h-328l21 316h651v-924q0 -264 -127.5 -398.5t-380.5 -134.5q-90 0 -164 19t-166 63v314zM231 1532v37l215 340h271l215 -340v-37h-240l-108 190h-4l-111 -190h-238z" />
    <glyph glyph-name="germandbls.alt" horiz-adv-x="1298" 
d="M1184 1563v-213q0 -121 -21.5 -214t-62.5 -155.5t-93 -102t-120 -63.5q69 -15 130 -46.5t113.5 -81.5t83.5 -126t31 -168q0 -62 -13.5 -119.5t-45 -112t-78 -95t-118.5 -65t-161 -24.5q-142 0 -254 35l-20 318q93 -35 178 -35q76 0 120 38t44 116q-2 98 -81 161.5
t-202 63.5h-12v248q281 0 281 329q-171 6 -221 6q-122 0 -164.5 -50t-42.5 -183v-1024h-342v1053q0 267 134.5 399.5t422.5 132.5q58 0 225.5 -11t288.5 -11z" />
    <glyph glyph-name="three.alt" horiz-adv-x="1095" 
d="M719 721q134 -10 226.5 -98t92.5 -242q0 -188 -141 -298t-373 -110q-136 0 -252.5 35t-193.5 82l-21 322q217 -121 422 -121q108 0 157.5 32.5t49.5 96.5q0 168 -321 168h-56v254h56q303 0 303 162q0 57 -44.5 96t-156.5 39q-182 0 -387 -117l20 321q77 47 192 81t253 34
q229 0 352 -103.5t123 -287.5q0 -156 -85 -247t-216 -99z" />
    <glyph glyph-name="one.alt" horiz-adv-x="1026" 
d="M985 0h-924v315h295v732l-288 -82v323l544 154h88v-1127h285v-315z" />
    <glyph glyph-name="u.alt" horiz-adv-x="1169" 
d="M104 440v584h336v-543q0 -99 29.5 -148.5t116.5 -49.5q45 0 75 13.5t44.5 42t20 61.5t5.5 81v543h334v-582q0 -104 -25.5 -186.5t-80.5 -146t-149.5 -98t-223.5 -34.5q-130 0 -225 34.5t-150 98t-81 145.5t-26 185z" />
    <glyph glyph-name="ugrave.alt" 
d="M104 440v584h334v-543q0 -99 30.5 -148.5t117.5 -49.5q45 0 75 13.5t44.5 42t20 61.5t5.5 81v543h334v-582q0 -104 -25.5 -186.5t-80.5 -146t-149.5 -98t-223.5 -34.5q-130 0 -225 34.5t-150 98t-81 145.5t-26 185zM221 1563h320l233 -342v-37h-256l-297 342v37z" />
    <glyph glyph-name="uacute.alt" 
d="M104 440v584h334v-543q0 -99 30.5 -148.5t117.5 -49.5q45 0 75 13.5t44.5 42t20 61.5t5.5 81v543h334v-582q0 -104 -25.5 -186.5t-80.5 -146t-149.5 -98t-223.5 -34.5q-130 0 -225 34.5t-150 98t-81 145.5t-26 185zM424 1221l231 342h320v-37l-297 -342h-254v37z" />
    <glyph glyph-name="ucircumflex.alt" 
d="M104 1024h334v-543q0 -99 30.5 -148.5t117.5 -49.5q45 0 75 13.5t44.5 42t20 61.5t5.5 81v543h334v-582q0 -104 -25.5 -186.5t-80.5 -146t-149.5 -98t-223.5 -34.5q-130 0 -225 34.5t-150 98t-81 145.5t-26 185v584zM473 1163h-240v37l230 363h246l227 -363v-37h-240
l-108 191h-4z" />
    <glyph glyph-name="udieresis.alt" 
d="M586 -23q-130 0 -225 34.5t-150 98t-81 145.5t-26 185v584h334v-543q0 -99 30.5 -148.5t117.5 -49.5q45 0 75 13.5t44.5 42t20 61.5t5.5 81v543h334v-582q0 -104 -25.5 -186.5t-80.5 -146t-149.5 -98t-223.5 -34.5zM375 1214q-72 0 -124 51t-52 124q0 72 52 125t124 53
t124 -53t52 -125q0 -73 -52 -124t-124 -51zM795 1214q-72 0 -123 51t-51 124q0 72 51 125t123 53t124 -53t52 -125q0 -73 -52 -124t-124 -51z" />
    <glyph glyph-name="utilde.alt" horiz-adv-x="1214" 
d="M104 440v584h334v-543q0 -99 30.5 -148.5t117.5 -49.5q45 0 75 13.5t44.5 42t20 61.5t5.5 81v543h334v-582q0 -104 -25.5 -186.5t-80.5 -146t-149.5 -98t-223.5 -34.5q-130 0 -225 34.5t-150 98t-81 145.5t-26 185zM215 1198q-33 174 23 269.5t170 95.5q37 0 75 -13
t62.5 -27t72.5 -44l48 -31q24 -18 51 -18t31.5 23t-11.5 91h219q33 -174 -22 -268t-170 -94q-37 0 -75 12.5t-63 26t-73 43.5l-47 30q-28 21 -51 21q-26 0 -31 -24.5t10 -92.5h-219z" />
    <glyph glyph-name="umacron.alt" 
d="M104 1024h334v-543q0 -99 30.5 -148.5t117.5 -49.5q45 0 75 13.5t44.5 42t20 61.5t5.5 81v543h334v-582q0 -104 -25.5 -186.5t-80.5 -146t-149.5 -98t-223.5 -34.5q-130 0 -225 34.5t-150 98t-81 145.5t-26 185v584zM274 1501h621v-258h-621v258z" />
    <glyph glyph-name="ubreve.alt" 
d="M104 440v584h334v-543q0 -99 30.5 -148.5t117.5 -49.5q45 0 75 13.5t44.5 42t20 61.5t5.5 81v543h334v-582q0 -104 -25.5 -186.5t-80.5 -146t-149.5 -98t-223.5 -34.5q-130 0 -225 34.5t-150 98t-81 145.5t-26 185zM238 1544h213q15 -149 135 -149q118 0 133 149h215
q-22 -183 -110.5 -275.5t-237.5 -92.5q-150 0 -238 92.5t-110 275.5z" />
    <glyph glyph-name="uring.alt" 
d="M586 -23q-130 0 -225 34.5t-150 98t-81 145.5t-26 185v584h334v-543q0 -99 30.5 -148.5t117.5 -49.5q45 0 75 13.5t44.5 42t20 61.5t5.5 81v543h334v-582q0 -104 -25.5 -186.5t-80.5 -146t-149.5 -98t-223.5 -34.5zM336 1382q0 103 73 175.5t177 72.5q100 0 174 -73
t74 -175q0 -103 -73.5 -175t-174.5 -72q-105 0 -177.5 71.5t-72.5 175.5zM514 1380q0 -31 20 -52t52 -21t50.5 20.5t18.5 52.5q0 33 -18.5 53.5t-50.5 20.5t-52 -21t-20 -53z" />
    <glyph glyph-name="uhungarumlaut.alt" 
d="M586 -23q-130 0 -225 34.5t-150 98t-81 145.5t-26 185v584h334v-543q0 -99 30.5 -148.5t117.5 -49.5q45 0 75 13.5t44.5 42t20 61.5t5.5 81v543h334v-582q0 -104 -25.5 -186.5t-80.5 -146t-149.5 -98t-223.5 -34.5zM285 1184l182 379h289l-258 -379h-213zM602 1184
l184 379h263v-37l-232 -342h-215z" />
    <glyph glyph-name="uogonek.alt" 
d="M104 1024h334v-543q0 -99 29.5 -148.5t116.5 -49.5q45 0 75 13.5t44.5 42t20 61.5t5.5 81v543h336v-582q0 -300 -207 -407q-233 -172 -233 -307q0 -52 63 -52q56 0 166 39l-20 -194q-98 -35 -187 -35q-118 0 -184 60t-66 157q0 142 148 274q-119 5 -206 41.5t-137.5 100
t-74 143t-23.5 178.5v584z" />
    <glyph glyph-name="question.alt" horiz-adv-x="813" 
d="M432 635v-139h-285v321q150 0 233 53.5t83 139.5q0 54 -37.5 93.5t-132.5 39.5q-116 0 -246 -68v314q152 65 332 65q111 0 194.5 -31t132.5 -86t73 -123.5t24 -148.5q0 -93 -31 -170t-84 -129t-118 -85t-138 -46zM94 172q0 84 56 141.5t139 57.5q82 0 139 -58t57 -141
q0 -81 -57 -136.5t-139 -55.5q-83 0 -139 55t-56 137z" />
    <glyph glyph-name="zero.pnum" horiz-adv-x="1245" 
d="M401 717q0 -422 222 -422q223 0 223 422t-223 422q-222 0 -222 -422zM49 717q0 155 36 288t105.5 234.5t180.5 159t252 57.5q113 0 207.5 -37.5t161.5 -105t113.5 -160.5t68.5 -202.5t22 -233.5q0 -155 -36 -288t-105 -234.5t-180 -159.5t-252 -58t-252 58t-180.5 159.5
t-105.5 234.5t-36 288z" />
    <glyph glyph-name="one.pnum" horiz-adv-x="1245" 
d="M1126 0h-960v315h313v732l-307 -82v323l563 154h88v-1127h303v-315z" />
    <glyph glyph-name="two.pnum" horiz-adv-x="1245" 
d="M127 0v283q282 134 450 307.5t168 347.5q0 99 -56 153t-161 54q-179 0 -387 -144v314q95 66 218.5 103.5t244.5 37.5q119 0 214.5 -37.5t155 -102.5t91 -149t31.5 -180q0 -101 -34.5 -202t-93.5 -186t-129.5 -156t-150.5 -128h469l-22 -315h-1008z" />
    <glyph glyph-name="three.pnum" horiz-adv-x="1245" 
d="M1073 1143l-235 -281q292 -102 292 -397q0 -101 -38 -189.5t-108 -155t-178.5 -105t-240.5 -38.5q-122 0 -236 35.5t-190 81.5l-20 322q217 -121 395 -121q136 0 200 55.5t64 136.5q0 107 -105 160t-274 53h-28v43l319 377h-549l21 314h911v-291z" />
    <glyph glyph-name="four.pnum" horiz-adv-x="1245" 
d="M111 332l-56 192l465 910h363l-414 -818h227v265h314v-265h178l-21 -284h-157v-332h-318v332h-581z" />
    <glyph glyph-name="five.pnum" horiz-adv-x="1245" 
d="M152 76l-19 321q195 -106 391 -106q123 0 192.5 45t69.5 139q0 78 -53 114t-176 36q-107 0 -319 -31h-48l21 840h874l-20 -316h-537l-6 -225q122 14 176 14q217 0 328 -110t111 -310q0 -241 -151 -375.5t-404 -134.5q-201 0 -430 99z" />
    <glyph glyph-name="six.pnum" horiz-adv-x="1245" 
d="M123 678q0 176 33 315.5t102 244.5t183 161.5t268 56.5q210 0 381 -108l-19 -287q-159 88 -315 88q-150 0 -223.5 -83t-73.5 -228q124 71 278 71q185 0 299.5 -116t114.5 -318q0 -230 -136.5 -364t-365.5 -134q-526 0 -526 701zM459 555q0 -118 48.5 -198.5t137.5 -80.5
q84 0 127 48.5t43 126.5q0 82 -41 119.5t-127 37.5q-106 0 -188 -53z" />
    <glyph glyph-name="seven.pnum" horiz-adv-x="1245" 
d="M555 0h-358l581 1118h-647l21 316h1015v-256z" />
    <glyph glyph-name="eight.pnum" horiz-adv-x="1245" 
d="M623 -23q-122 0 -221 32.5t-164.5 89t-100.5 132t-35 162.5q0 74 28 139t69 105.5t77 64.5t64 33v4q-19 5 -49.5 27.5t-66 59t-60.5 94.5t-25 122q0 84 28.5 156.5t85.5 131t152 92.5t218 34q122 0 216 -34t150 -92.5t84.5 -131t28.5 -156.5q0 -52 -17 -100.5
t-41.5 -82.5t-53 -61t-51 -41t-36.5 -18v-4q28 -9 64 -33t77 -64.5t69 -105.5t28 -139q0 -180 -138 -298t-380 -118zM623 594q-87 0 -137 -42t-50 -116q0 -72 48.5 -114.5t138.5 -42.5t137 42t47 115q0 74 -50 116t-134 42zM623 1155q-83 0 -118.5 -43t-35.5 -102
q0 -63 38 -102.5t116 -39.5q76 0 113.5 39.5t37.5 102.5q0 59 -35 102t-116 43z" />
    <glyph glyph-name="nine.pnum" horiz-adv-x="1245" 
d="M1143 756q0 -140 -20.5 -257.5t-65.5 -215t-112.5 -165t-166.5 -104.5t-223 -37q-208 0 -381 109l19 287q159 -88 315 -88q150 0 224.5 83t74.5 228q-129 -72 -281 -72q-185 0 -299 116t-114 318q0 230 136 364t365 134q529 0 529 -700zM805 879q0 118 -49 198t-138 80
q-84 0 -126.5 -48t-42.5 -126q0 -82 40.5 -120t126.5 -38q109 0 189 54z" />
    </font>
</defs>
</svg>
