<?xml version="1.0" standalone="no"?>
<!DOCTYPE svg PUBLIC "-//W3C//DTD SVG 1.1//EN" "http://www.w3.org/Graphics/SVG/1.1/DTD/svg11.dtd" >
<svg xmlns="http://www.w3.org/2000/svg" xmlns:xlink="http://www.w3.org/1999/xlink" version="1.1">
<metadata>
Created by FontForge 20201107 at Mon Mar 18 15:12:48 2024
 By 
2018 Ufuk Aracoglu, published by Horizon Type
</metadata>
<defs>
<font id="Marcher-Light" horiz-adv-x="1218" >
  <font-face 
    font-family="Marcher Light"
    font-weight="200"
    font-stretch="normal"
    units-per-em="2048"
    panose-1="0 0 0 0 0 0 0 0 0 0"
    ascent="1638"
    descent="-410"
    x-height="1024"
    cap-height="1434"
    bbox="-84 -555 3942 2275"
    underline-thickness="102"
    underline-position="-204"
    unicode-range="U+000D-25CA"
  />
<missing-glyph horiz-adv-x="1363" 
d="M328 1434h698q57 0 91 -34t34 -91v-1184q0 -57 -34 -91t-91 -34h-698q-57 0 -91 34t-34 91v1184q0 57 34 91t91 34zM530 309q0 -43 30 -72.5t73 -29.5t74.5 30t31.5 72q0 43 -31.5 74t-74.5 31t-73 -31t-30 -74zM459 1184v-164q95 53 178 53q67 0 99 -28.5t32 -77.5
q0 -39 -27.5 -82.5t-64.5 -82t-72 -79.5t-53 -90.5t-6 -100.5h157q-9 36 -1.5 62t28 55t46.5 53t54.5 56.5t52 65t39 78t15.5 95.5q0 102 -71.5 166t-205.5 64q-97 0 -200 -43z" />
    <glyph glyph-name="Logo" unicode="HORIZONTYPE" horiz-adv-x="4177" 
d="M1800 0v1434h2142v-1434h-2142zM1669 1434v-1434h-1433v1434h1433zM520 580q38 -78 92.5 -120t114.5 -42t111 51l170 170l110 -107l19 19l-111 106l180 183q50 47 101 47q50 0 67 -45l6 -11q7 -23 1.5 -29.5t-25.5 -6.5q-8 0 -26 2t-27 2q-35 0 -52 -17
q-25 -25 -26 -54.5t26 -57.5q27 -23 56 -23q45 0 82 37q52 52 -5 166q-37 77 -93 119.5t-113 42.5q-64 0 -111 -47l-170 -174l-111 106l-18 -18l106 -107l-180 -178q-54 -51 -100 -51q-49 0 -66 45l-4 10q-8 23 -2 30t27 7h53q35 0 51 16q25 25 25.5 55.5t-25.5 57.5
q-21 18 -55 18q-50 0 -82 -32q-52 -52 4 -170zM3267 786q45 0 77.5 35t32.5 80q0 39 -22 69.5t-58 41.5q-20 4 -30 4q-11 0 -31 -4q-36 -11 -58 -41.5t-22 -69.5q0 -45 33 -80t78 -35zM2490 1012q-36 -11 -58 -41.5t-22 -69.5q0 -45 33 -80t78 -35q6 0 31 5q36 10 58 41
t22 69q0 40 -21.5 70.5t-58.5 40.5q-20 4 -31 4t-31 -4zM3412 791h55v133l99 -133h53v221h-58v-129l-98 129h-51v-221zM2669 791h51v81h14l53 -81h58v8l-52 78q50 15 50 65q0 30 -20 50t-62 20h-92v-221zM2181 1012v-221h55v88h88v-88h52v221h-52v-84h-88v84h-55zM2660 647
h-88v-223h56v78h32q39 0 58.5 21t19.5 52q0 15 -2 23q-15 49 -76 49zM2771 424h151l5 49h-103v41h96v47h-96v37h98v49h-151v-223zM2959 836v-45h179l4 49h-111l102 129v43h-165v-47h100zM2406 647h-55v-4l74 -123v-96h51v96l74 123v4h-56l-45 -74zM2167 647v-49h61v-174h51
v174h58l2 49h-172zM2466 901q0 26 14.5 47t40.5 21t42.5 -21.5t16.5 -46.5q0 -24 -16.5 -44.5t-42.5 -20.5t-40.5 20t-14.5 45zM3267 836q-26 0 -41 20.5t-15 44.5q0 26 15 47t41 21t40.5 -21t14.5 -47q0 -25 -14.5 -45t-40.5 -20zM2875 1012v-221h52v221h-52zM2720 969h33
q16 0 25 -8t9 -19q0 -27 -34 -27h-33v54zM2628 602h22q11 0 23 -4q10 -5 10 -23q0 -15 -7 -21.5t-26 -6.5h-22v55z" />
    <glyph glyph-name="N_N" unicode="NN" horiz-adv-x="2621" 
d="M336 0h-133v1434h127l915 -1174v1174h125l916 -1174v1174h133v-1436h-95l-948 1208v-1208h-92l-948 1208v-1206z" />
    <glyph glyph-name=".notdef" horiz-adv-x="1363" 
d="M328 1434h698q57 0 91 -34t34 -91v-1184q0 -57 -34 -91t-91 -34h-698q-57 0 -91 34t-34 91v1184q0 57 34 91t91 34zM530 309q0 -43 30 -72.5t73 -29.5t74.5 30t31.5 72q0 43 -31.5 74t-74.5 31t-73 -31t-30 -74zM459 1184v-164q95 53 178 53q67 0 99 -28.5t32 -77.5
q0 -39 -27.5 -82.5t-64.5 -82t-72 -79.5t-53 -90.5t-6 -100.5h157q-9 36 -1.5 62t28 55t46.5 53t54.5 56.5t52 65t39 78t15.5 95.5q0 102 -71.5 166t-205.5 64q-97 0 -200 -43z" />
    <glyph glyph-name="uni0000" horiz-adv-x="0" 
 />
    <glyph glyph-name="uni0000" horiz-adv-x="0" 
 />
    <glyph glyph-name="uni000D" unicode="&#xd;" horiz-adv-x="512" 
 />
    <glyph glyph-name="space" unicode=" " horiz-adv-x="614" 
 />
    <glyph glyph-name="exclam" unicode="!" horiz-adv-x="602" 
d="M236 1442h135v-99l-15 -937h-106l-14 937v99zM197 84q0 44 30 75t74 31t75.5 -31t31.5 -75t-31 -74t-76 -30q-44 0 -74 30t-30 74z" />
    <glyph glyph-name="quotedbl" unicode="&#x22;" horiz-adv-x="817" 
d="M520 934v541h133v-21l-37 -520h-96zM172 934v541h133v-21l-37 -520h-96z" />
    <glyph glyph-name="numbersign" unicode="#" horiz-adv-x="1464" 
d="M94 541h326l63 389h-323v119h340l63 385h129l-63 -385h305l61 385h131l-63 -385h307v-119h-326l-61 -389h322v-119h-340l-68 -422h-129l68 422h-306l-67 -422h-129l67 422h-307v119zM549 541h305l64 389h-308z" />
    <glyph glyph-name="dollar" unicode="$" horiz-adv-x="1189" 
d="M537 123q14 -2 45 -2q53 0 102.5 7t99.5 25t86 46t59 73.5t23 104.5q0 56 -21 100t-63 77t-87.5 55.5t-110.5 45.5q-59 22 -133 45q-50 18 -84.5 31.5t-78.5 34.5t-73.5 41.5t-61 50t-50 62t-30.5 75.5t-12 92q0 149 105 240t285 105v221h133v-223q187 -14 348 -115
l-14 -131q-198 129 -402 129q-47 0 -90 -5.5t-87 -21t-76 -39.5t-52.5 -64t-20.5 -91q0 -48 19.5 -86.5t58.5 -68t80.5 -50.5t102.5 -43q18 -6 63 -21.5t70 -23.5q60 -21 102.5 -38.5t94.5 -44.5t86.5 -57.5t65.5 -70.5t46.5 -92.5t15.5 -114.5q0 -164 -107.5 -262
t-303.5 -115v-221h-133v219q-113 5 -208 38.5t-192 86.5v133q70 -38 119.5 -61.5t128 -47t152.5 -28.5z" />
    <glyph glyph-name="percent" unicode="%" horiz-adv-x="1718" 
d="M420 721q-140 0 -241 106t-101 260t101 260.5t241 106.5q141 0 242.5 -106.5t101.5 -260.5t-101.5 -260t-242.5 -106zM420 834q99 0 164 74.5t65 178.5t-65 178t-164 74q-98 0 -164 -74.5t-66 -177.5t66 -178t164 -75zM436 -16h-131v14l950 1434h131v-15zM1286 -20
q-140 0 -241 106t-101 260t101 260.5t241 106.5t242 -107t102 -260t-102 -259.5t-242 -106.5zM1286 92q99 0 165.5 75t66.5 179q0 103 -66.5 177.5t-165.5 74.5q-98 0 -163.5 -74.5t-65.5 -177.5t65.5 -178.5t163.5 -75.5z" />
    <glyph glyph-name="ampersand" unicode="&#x26;" horiz-adv-x="1384" 
d="M90 348q0 78 28 146t71 116t108 91.5t124 71t134 56.5l-336 521v84h893l-8 -123h-705l605 -942l237 196l72 -114l-236 -195l223 -348v-12h-145l-180 278q-125 -97 -240 -147t-239 -50q-181 0 -293.5 102t-112.5 269zM903 287l-276 430l-19 -8q-80 -28 -142.5 -59.5
t-120 -74.5t-89 -100t-31.5 -123q0 -106 77 -172.5t200 -66.5q104 0 198 45.5t203 128.5z" />
    <glyph glyph-name="quotesingle" unicode="'" horiz-adv-x="446" 
d="M270 942h-96l-18 541h133z" />
    <glyph glyph-name="parenleft" unicode="(" horiz-adv-x="696" 
d="M229 631q0 -486 406 -844l-96 -88q-445 392 -445 932t445 932l96 -88q-406 -358 -406 -844z" />
    <glyph glyph-name="parenright" unicode=")" horiz-adv-x="688" 
d="M467 631q0 488 -404 844l95 88q444 -391 444 -932t-444 -932l-95 88q404 356 404 844z" />
    <glyph glyph-name="asterisk" unicode="*" horiz-adv-x="919" 
d="M88 948l270 131l-270 131l49 90l275 -141l-2 314h102l-2 -312l272 146l49 -90l-268 -138l268 -137l-49 -90l-272 145l2 -311h-102l2 311l-275 -139z" />
    <glyph glyph-name="plus" unicode="+" horiz-adv-x="1077" 
d="M477 594h-399v123h399v399h123v-399h399v-123h-399v-399h-123v399z" />
    <glyph glyph-name="comma" unicode="," horiz-adv-x="509" 
d="M82 -358l129 538h131v-12l-143 -526h-117z" />
    <glyph glyph-name="hyphen" unicode="-" horiz-adv-x="864" 
d="M766 594h-666v121h666v-121z" />
    <glyph glyph-name="period" unicode="." horiz-adv-x="548" 
d="M168 84q0 44 30 75t74 31t75.5 -31t31.5 -75t-31 -74t-76 -30q-44 0 -74 30t-30 74z" />
    <glyph glyph-name="slash" unicode="/" horiz-adv-x="747" 
d="M563 1516h137l-516 -1696h-139z" />
    <glyph glyph-name="zero" unicode="0" horiz-adv-x="1245" 
d="M215 717q0 -125 25.5 -234t74.5 -194.5t128.5 -135t179.5 -49.5q133 0 227 86.5t137 222.5t43 304q0 125 -25.5 233.5t-74 194t-128 135t-179.5 49.5t-179.5 -49.5t-128.5 -134.5t-74.5 -194t-25.5 -234zM80 717q0 155 35 287.5t101 233.5t171 158.5t236 57.5
t235.5 -57.5t171 -158.5t101 -233.5t34.5 -287.5t-34.5 -287.5t-101 -233.5t-171 -158.5t-235.5 -57.5t-236 57.5t-171 158.5t-101 233.5t-35 287.5z" />
    <glyph glyph-name="one" unicode="1" horiz-adv-x="724" 
d="M522 0h-131v1288l-313 -84v129l385 103h59v-1436z" />
    <glyph glyph-name="two" unicode="2" horiz-adv-x="1157" 
d="M117 0v111q126 85 228 163t205.5 173.5t172.5 185t112.5 192t43.5 199.5q0 144 -86 224.5t-230 80.5q-103 0 -216.5 -40t-211.5 -109v133q94 67 212 104t228 37q196 0 316.5 -116t120.5 -304q0 -437 -682 -911h749l-10 -123h-952z" />
    <glyph glyph-name="three" unicode="3" horiz-adv-x="1107" 
d="M979 1311l-365 -469q87 -13 158.5 -41.5t131 -76t93 -122.5t33.5 -170q0 -90 -32.5 -170.5t-94 -144t-161.5 -100.5t-226 -37q-125 0 -234 37t-186 87l-8 134q212 -134 418 -134q98 0 175 29t123 77t69.5 105.5t23.5 118.5q0 108 -65.5 183t-168.5 108t-235 33h-20v22
l415 531h-721l11 123h866v-123z" />
    <glyph glyph-name="four" unicode="4" horiz-adv-x="1103" 
d="M57 348l-28 86l530 1000h150l-510 -961h499v422h131v-422h252l-10 -125h-242v-348h-133v348h-639z" />
    <glyph glyph-name="five" unicode="5" horiz-adv-x="1122" 
d="M106 100l-8 131q82 -54 197 -90.5t231 -36.5q179 0 279 91.5t100 250.5q0 147 -89.5 224.5t-262.5 77.5q-116 0 -332 -56h-53l16 742h799l-10 -123h-658l-12 -484q176 45 285 45q215 0 332.5 -112t117.5 -314q0 -215 -132 -340.5t-363 -125.5q-126 0 -241.5 35.5
t-195.5 84.5z" />
    <glyph glyph-name="six" unicode="6" horiz-adv-x="1101" 
d="M80 657q0 186 30.5 330t94.5 250t169 161.5t247 55.5q184 0 340 -106l-11 -127q-153 108 -319 108q-110 0 -192 -43.5t-131 -123.5t-73 -184.5t-24 -234.5q72 59 172 96.5t215 37.5q189 0 306.5 -116t117.5 -315q0 -211 -121.5 -338.5t-337.5 -127.5q-126 0 -219.5 47.5
t-150.5 137.5t-85 212.5t-28 279.5zM211 612q0 -148 36 -260t115.5 -180t194.5 -68q162 0 247 93t85 243t-84 232t-234 82q-100 0 -193.5 -37.5t-166.5 -104.5z" />
    <glyph glyph-name="seven" unicode="7" horiz-adv-x="1040" 
d="M350 0h-145l653 1311h-811l10 123h955v-109z" />
    <glyph glyph-name="eight" unicode="8" horiz-adv-x="1107" 
d="M557 -20q-216 0 -346.5 111t-130.5 286q0 72 25 133.5t59.5 100t77.5 68t73 42.5t52 18v2q-18 4 -45 17.5t-62 42t-64.5 64.5t-50 91.5t-20.5 118.5q0 71 28 138t80 121t136 87t188 33q103 0 186.5 -33t135 -87t79 -121t27.5 -138q0 -62 -20.5 -118t-49.5 -92t-64.5 -65
t-61.5 -42.5t-44 -18.5q22 -6 51.5 -18.5t72.5 -42t77 -68t59 -100t25 -133.5q0 -176 -129 -286.5t-344 -110.5zM555 676q-142 0 -241 -76.5t-99 -210.5q0 -127 92.5 -206t247.5 -79q156 0 248 78.5t92 206.5q0 134 -99 210.5t-241 76.5zM555 1329q-144 0 -220.5 -79.5
t-76.5 -184.5q0 -117 82.5 -190.5t214.5 -73.5q133 0 214 73t81 191q0 49 -17 94.5t-51.5 84t-93 62t-133.5 23.5z" />
    <glyph glyph-name="nine" unicode="9" horiz-adv-x="1105" 
d="M1022 776q0 -186 -30.5 -329.5t-94.5 -249.5t-168.5 -161.5t-247.5 -55.5q-188 0 -342 106l13 127q155 -109 319 -109q110 0 192 43t131 123t73 184.5t24 235.5q-72 -60 -171.5 -97.5t-215.5 -37.5q-189 0 -306.5 116.5t-117.5 315.5q0 211 121.5 339t337.5 128
q126 0 219.5 -48t150.5 -138t85 -212.5t28 -279.5zM891 821q0 147 -36 259t-115.5 180.5t-194.5 68.5q-162 0 -247 -93t-85 -243t83.5 -231.5t233.5 -81.5q100 0 194 37t167 104z" />
    <glyph glyph-name="colon" unicode=":" horiz-adv-x="526" 
d="M158 84q0 44 30 75t74 31t75.5 -31t31.5 -75t-31 -74t-76 -30q-44 0 -74 30t-30 74zM158 932q0 44 30 75t74 31t75.5 -31t31.5 -75t-31.5 -74.5t-75.5 -30.5t-74 30.5t-30 74.5z" />
    <glyph glyph-name="semicolon" unicode=";" horiz-adv-x="524" 
d="M160 932q0 44 30.5 75t73.5 31q44 0 75.5 -31t31.5 -75t-31.5 -74.5t-75.5 -30.5q-43 0 -73.5 30.5t-30.5 74.5zM82 -358l129 540h131v-14l-143 -526h-117z" />
    <glyph glyph-name="less" unicode="&#x3c;" horiz-adv-x="935" 
d="M12 508v139l815 488v-160l-663 -395v-2l663 -396v-157z" />
    <glyph glyph-name="equal" unicode="=" horiz-adv-x="1048" 
d="M100 385v129h822v-129h-822zM100 793v129h822v-129h-822z" />
    <glyph glyph-name="greater" unicode="&#x3e;" horiz-adv-x="935" 
d="M109 182l663 396v2l-663 395v160l815 -488v-139l-815 -483v157z" />
    <glyph glyph-name="question" unicode="?" horiz-adv-x="774" 
d="M213 84q0 44 30 75t74 31t75.5 -31t31.5 -75q0 -43 -31.5 -73.5t-75.5 -30.5t-74 30.5t-30 73.5zM84 1264v133q135 57 268 57q178 0 275.5 -86t97.5 -227q0 -72 -23 -138t-58.5 -117t-78 -99.5t-82.5 -92.5t-71 -88t-44 -95t-1 -105h-129q-12 58 1 114.5t43 104.5
t69.5 95t81.5 94t77 93.5t57.5 101.5t22.5 111q0 94 -63.5 151.5t-188.5 57.5q-132 0 -254 -65z" />
    <glyph glyph-name="at" unicode="@" horiz-adv-x="2086" 
d="M229 467q0 -171 62.5 -326.5t170 -268.5t259 -180t321.5 -67h91l-11 -125h-80q-197 0 -372 73.5t-301.5 200.5t-200.5 306.5t-74 382.5t74.5 386t203.5 316t312 211t391 78q191 0 360.5 -66.5t292 -183t194 -282t71.5 -355.5q0 -250 -113.5 -403.5t-292.5 -153.5
q-89 0 -153.5 38.5t-98.5 92.5l-12 -2q-49 -49 -134 -89t-190 -40q-185 0 -298 132.5t-113 332.5q0 199 112 332t293 133q152 0 287 -115v95h131v-596q0 -93 49.5 -142t128.5 -49q124 0 196.5 115.5t72.5 304.5q0 167 -60 312t-164 246.5t-249 159.5t-310 58
q-181 0 -340.5 -70t-269.5 -188t-173 -275t-63 -329zM1278 240v473q-112 102 -258 102q-139 0 -219 -95t-80 -245t79.5 -245t217.5 -95q83 0 150 32t110 73z" />
    <glyph glyph-name="A" unicode="A" horiz-adv-x="1363" 
d="M168 0h-133v12l581 1422h132l583 -1422v-12h-135l-149 365h-730zM365 489h632l-313 773h-2z" />
    <glyph glyph-name="B" unicode="B" horiz-adv-x="1277" 
d="M705 0h-502v1434h436q217 0 349 -97.5t132 -279.5q0 -76 -24 -137.5t-64.5 -99.5t-86 -60t-95.5 -29q41 -5 83.5 -18.5t88.5 -42t82 -67.5t59 -100t23 -134q0 -180 -129.5 -274.5t-351.5 -94.5zM334 666v-541h366q73 0 133.5 13t111 41.5t78.5 78.5t28 119
q0 137 -102.5 213t-256.5 76h-358zM633 1309h-299v-518h350q37 0 72 4.5t78.5 20.5t75 41.5t53.5 73t22 109.5q0 94 -48 156t-124.5 87.5t-179.5 25.5z" />
    <glyph glyph-name="C" unicode="C" horiz-adv-x="1343" 
d="M1221 229l2 -149q-179 -100 -406 -100q-161 0 -298 58t-229.5 157.5t-144 234.5t-51.5 287t51.5 287t144 234.5t229.5 157.5t298 58q229 0 408 -108l-21 -136q-162 119 -370 119q-140 0 -255.5 -50t-191 -134.5t-117 -195t-41.5 -232.5t41.5 -232.5t117 -195.5
t191.5 -135t255 -50q208 0 387 125z" />
    <glyph glyph-name="D" unicode="D" horiz-adv-x="1501" 
d="M203 1434h504q152 0 283.5 -57.5t221.5 -155t141.5 -228.5t51.5 -276t-51.5 -276t-141.5 -228.5t-221.5 -155t-283.5 -57.5h-504v1434zM336 123h369q101 0 191.5 33t158 90t117 132.5t75 162t25.5 176.5t-25.5 176.5t-75 162t-117 132.5t-158 90t-191.5 33h-369v-1188z
" />
    <glyph glyph-name="E" unicode="E" horiz-adv-x="1257" 
d="M203 0v1434h901v-123h-770v-527h729v-122h-729v-539h780l-8 -123h-903z" />
    <glyph glyph-name="F" unicode="F" horiz-adv-x="1216" 
d="M334 0h-131v1434h901l-10 -123h-760v-551h731v-123h-731v-637z" />
    <glyph glyph-name="G" unicode="G" horiz-adv-x="1429" 
d="M1272 1343l-19 -139q-192 125 -422 125q-107 0 -204 -35t-169 -94.5t-125.5 -137.5t-80.5 -166.5t-27 -178.5q0 -114 44 -224.5t121 -196.5t191 -139t244 -53q179 0 324 60v454h-395v125h528v-671q-127 -52 -232.5 -72t-232.5 -20q-156 0 -292.5 61t-230.5 162.5
t-148 235.5t-54 278t54.5 278t149 235.5t234 162.5t299.5 61q249 0 443 -111z" />
    <glyph glyph-name="H" unicode="H" horiz-adv-x="1519" 
d="M334 0h-131v1434h131v-646h850v646h131v-1434h-131v666h-850v-666z" />
    <glyph glyph-name="I" unicode="I" horiz-adv-x="538" 
d="M336 0h-133v1434h133v-1434z" />
    <glyph glyph-name="J" unicode="J" horiz-adv-x="944" 
d="M90 39v133q136 -68 264 -68q156 0 227.5 87t71.5 296v947h131v-963q0 -253 -107.5 -372t-316.5 -119q-134 0 -270 59z" />
    <glyph glyph-name="K" unicode="K" horiz-adv-x="1269" 
d="M334 0h-131v1434h131v-631h2l702 631h160v-13l-737 -665l760 -744v-12h-162l-723 705h-2v-705z" />
    <glyph glyph-name="L" unicode="L" horiz-adv-x="1130" 
d="M336 1434v-1311h715l-9 -123h-839v1434h133z" />
    <glyph glyph-name="M" unicode="M" horiz-adv-x="1894" 
d="M336 0h-133v1434h168l575 -1217h2l578 1217h166v-1434h-131v1204l-570 -1204v-2h-88v2l-567 1204v-1204z" />
    <glyph glyph-name="N" unicode="N" horiz-adv-x="1581" 
d="M336 0h-133v1434h125l917 -1174v1174h131v-1436h-94l-946 1208v-1206z" />
    <glyph glyph-name="O" unicode="O" horiz-adv-x="1558" 
d="M94 717q0 143 50 276.5t137.5 235.5t217.5 163.5t279 61.5t279 -61.5t218.5 -163.5t138.5 -235.5t50 -276.5t-50 -276.5t-137.5 -235.5t-217.5 -163.5t-279 -61.5t-279 61.5t-218.5 163.5t-138.5 235.5t-50 276.5zM229 717q0 -113 39.5 -222t109 -196.5t174.5 -141
t226 -53.5q98 0 186 35t153.5 95t114 138t73 166.5t24.5 178.5t-24.5 178.5t-73 166.5t-114 137.5t-153.5 94.5t-186 35q-121 0 -226 -53.5t-174.5 -140.5t-109 -196t-39.5 -222z" />
    <glyph glyph-name="P" unicode="P" horiz-adv-x="1212" 
d="M203 1434h450q116 0 208 -35.5t149.5 -97t87.5 -142t30 -174.5q0 -93 -30 -172.5t-87.5 -140.5t-149.5 -96t-208 -35h-317v-541h-133v1434zM336 664h303q173 0 263.5 88t90.5 233q0 147 -90.5 235.5t-263.5 88.5h-303v-645z" />
    <glyph glyph-name="Q" unicode="Q" horiz-adv-x="1558" 
d="M780 -20q-149 0 -279 61.5t-218.5 163.5t-138.5 235.5t-50 276.5t50 276.5t138 235.5t217.5 163.5t278.5 61.5t279 -61.5t218.5 -163.5t138.5 -235.5t50 -276.5q0 -165 -64.5 -315.5t-180.5 -254.5l165 -235l-118 -78l-150 236q-152 -90 -336 -90zM778 1329
q-121 0 -226 -53.5t-174.5 -140.5t-109 -196t-39.5 -222t39.5 -222t109 -196.5t174.5 -141t226 -53.5q143 0 269 76l-181 283l88 61l189 -266q88 88 137 210t49 249q0 90 -24.5 178.5t-73 166.5t-114 137.5t-153.5 94.5t-186 35z" />
    <glyph glyph-name="R" unicode="R" horiz-adv-x="1251" 
d="M203 0v1434h477q117 0 208 -33.5t148.5 -93.5t87 -138.5t29.5 -171.5q0 -171 -97 -289t-282 -143l379 -553v-12h-147l-385 559h-285v-559h-133zM664 1309h-328v-627h328q174 0 265 85.5t91 229.5q0 145 -91 228.5t-265 83.5z" />
    <glyph glyph-name="S" unicode="S" horiz-adv-x="1189" 
d="M1018 1335l-14 -131q-98 63 -193.5 96t-208.5 33q-151 0 -237 -66.5t-86 -174.5q0 -56 27.5 -100t74 -73.5t107 -54t127 -47t133 -47.5t126.5 -59t106.5 -77t73.5 -107.5t27 -145.5q2 -183 -131 -292t-364 -109q-131 0 -237 34t-212 92v134q113 -65 219 -103.5t226 -38.5
q177 0 272.5 78.5t95.5 200.5q0 78 -44.5 135t-115 91.5t-156 63.5t-171.5 61.5t-156.5 74.5t-115 114t-44.5 170q0 163 125 265t328 102q224 0 418 -119z" />
    <glyph glyph-name="T" unicode="T" horiz-adv-x="1126" 
d="M41 1434h1044l-10 -125h-446v-1309h-131v1309h-457v125z" />
    <glyph glyph-name="U" unicode="U" horiz-adv-x="1357" 
d="M160 535v899h131v-885q0 -220 98.5 -332.5t290.5 -112.5t289.5 112.5t97.5 332.5v885h131v-899q0 -264 -133.5 -409.5t-384.5 -145.5q-252 0 -386 145.5t-134 409.5z" />
    <glyph glyph-name="V" unicode="V" horiz-adv-x="1366" 
d="M35 1421v13h139l508 -1201h2l508 1201h139v-13l-604 -1423h-88z" />
    <glyph glyph-name="W" unicode="W" horiz-adv-x="1964" 
d="M35 1421v13h139l363 -1147h2l395 1147v2l98 -2l395 -1147h3l360 1147h139v-13l-452 -1423h-86l-408 1196h-2l-408 -1196h-86z" />
    <glyph glyph-name="X" unicode="X" horiz-adv-x="1316" 
d="M47 12l535 727l-500 682v13h154l421 -578h2l422 578h152v-13l-498 -682l533 -727v-12h-152l-457 625h-2l-456 -625h-154v12z" />
    <glyph glyph-name="Y" unicode="Y" horiz-adv-x="1142" 
d="M506 649l-471 772v13h139l397 -650l396 650h141v-13l-471 -772v-649h-131v649z" />
    <glyph glyph-name="Z" unicode="Z" horiz-adv-x="1294" 
d="M94 0v82l887 1229h-840v123h1008v-121l-858 -1190h895l-10 -123h-1082z" />
    <glyph glyph-name="bracketleft" unicode="[" horiz-adv-x="604" 
d="M193 -279v1819h370v-123h-239v-1573h239v-123h-370z" />
    <glyph glyph-name="backslash" unicode="\" horiz-adv-x="747" 
d="M45 1516h139l516 -1696h-137z" />
    <glyph glyph-name="bracketright" unicode="]" horiz-adv-x="604" 
d="M39 -156h240v1573h-240v123h371v-1819h-371v123z" />
    <glyph glyph-name="asciicircum" unicode="^" horiz-adv-x="841" 
d="M23 846v14l350 574h96l350 -574v-14h-137l-260 438h-2l-260 -438h-137z" />
    <glyph glyph-name="underscore" unicode="_" horiz-adv-x="1013" 
d="M932 -94v-131h-850v131h850z" />
    <glyph glyph-name="grave" unicode="`" horiz-adv-x="333" 
d="M184 1548l-241 314v16h143l215 -313v-17h-117z" />
    <glyph glyph-name="a" unicode="a" horiz-adv-x="1085" 
d="M193 842l-9 129q171 73 340 73q196 0 295 -97.5t99 -319.5v-627h-132l2 125q-171 -145 -376 -145q-148 0 -235 74.5t-87 211.5q0 86 36 150.5t99.5 102t141.5 55.5t170 18q116 0 251 -27l-2 53q1 169 -66 236.5t-204 67.5q-179 0 -323 -80zM788 236v225q-117 24 -237 24
q-150 0 -240 -52t-90 -161q0 -90 60 -133t159 -43q180 0 348 140z" />
    <glyph glyph-name="b" unicode="b" 
d="M322 0h-129v1565h129v-641q50 46 135.5 83t199.5 37q144 0 254 -75t166 -195t56 -262t-55.5 -262t-164 -195t-249.5 -75q-178 0 -342 151v-131zM322 797v-549q30 -27 51 -44t63.5 -45t93 -42.5t105.5 -14.5q111 0 196 58t127.5 150.5t42.5 201.5q0 110 -42.5 202.5
t-127.5 150t-198 57.5q-102 0 -181.5 -38.5t-129.5 -86.5z" />
    <glyph glyph-name="c" unicode="c" horiz-adv-x="999" 
d="M909 950l-14 -123q-138 95 -283 95q-183 0 -289 -116.5t-106 -293.5t106 -293.5t289 -116.5q151 0 295 101v-133q-136 -90 -311 -90q-225 0 -367.5 150.5t-142.5 381.5q0 232 142 382t370 150q175 0 311 -94z" />
    <glyph glyph-name="d" unicode="d" 
d="M555 -20q-141 0 -249.5 75t-164 195t-55.5 262q0 106 33 202t92.5 169.5t150.5 117t199 43.5q112 0 198 -37t136 -83v641h129v-1565h-129v131q-164 -151 -340 -151zM217 512q0 -109 42.5 -201.5t128.5 -150.5t200 -58q157 0 307 138v557q-51 49 -128.5 87t-178.5 38
q-114 0 -200 -57.5t-128.5 -150t-42.5 -202.5z" />
    <glyph glyph-name="e" unicode="e" horiz-adv-x="1124" 
d="M631 -20q-257 0 -399 142t-142 376q0 149 57 272t170 198.5t263 75.5q109 0 193.5 -40.5t136 -111t78 -159.5t26.5 -192v-80h-793q12 -171 115.5 -265t292.5 -94q175 0 344 91v-130q-157 -83 -342 -83zM221 569h662v9q0 93 -31 170t-102 128.5t-172 51.5
q-147 0 -243 -100.5t-114 -258.5z" />
    <glyph glyph-name="f" unicode="f" horiz-adv-x="745" 
d="M63 1024h152v285q0 76 23.5 130.5t64.5 84t88 42.5t103 13q10 0 20 -0.5t17.5 -0.5t16.5 -1.5t14.5 -2t15 -2.5t13 -2.5t14.5 -3t14.5 -3.5t16.5 -4.5t17 -4.5v-120q-73 22 -141 22q-168 0 -168 -153v-279h315l-10 -117h-305v-907h-129v907h-152v117z" />
    <glyph glyph-name="g" unicode="g" horiz-adv-x="1220" 
d="M86 512q0 142 55.5 262t164 195t249.5 75q178 0 342 -151v131h129v-993q0 -254 -123.5 -397.5t-367.5 -143.5q-223 0 -375 90l-13 131q170 -98 367 -98t290 107t93 300v82q-52 -48 -137 -85t-199 -37q-108 0 -199 43.5t-150.5 117t-92.5 169.5t-33 202zM588 922
q-171 0 -271 -119.5t-100 -290.5t100 -290.5t271 -119.5q178 0 309 121v557q-148 142 -309 142z" />
    <glyph glyph-name="h" unicode="h" 
d="M193 1565h129v-703q65 73 181 127.5t236 54.5q152 0 228.5 -99.5t76.5 -317.5v-627h-129v600q0 168 -52.5 245t-162.5 77q-102 0 -208 -55.5t-170 -131.5v-735h-129v1565z" />
    <glyph glyph-name="i" unicode="i" horiz-adv-x="516" 
d="M322 0h-127v1024h127v-1024zM152 1413q0 42 31 73.5t75 31.5q42 0 73 -31.5t31 -73.5q0 -44 -30.5 -75t-73.5 -31q-44 0 -75 31t-31 75z" />
    <glyph glyph-name="j" unicode="j" horiz-adv-x="516" 
d="M113 -520l-86 86q42 36 67.5 64.5t50.5 71.5t36.5 101t11.5 134v1087h129v-1092q0 -169 -53.5 -272t-155.5 -180zM152 1413q0 42 31 73.5t75 31.5q42 0 73 -31.5t31 -73.5q0 -44 -30.5 -75t-73.5 -31q-44 0 -75 31t-31 75z" />
    <glyph glyph-name="k" unicode="k" horiz-adv-x="1026" 
d="M324 0h-131v1565h131v-977h4l473 436h151v-12l-514 -480l545 -520v-12h-158l-497 471h-4v-471z" />
    <glyph glyph-name="l" unicode="l" horiz-adv-x="516" 
d="M322 0h-129v1565h129v-1565z" />
    <glyph glyph-name="m" unicode="m" horiz-adv-x="1816" 
d="M193 0v1024h129v-168q66 79 172.5 133.5t226.5 54.5q97 0 158.5 -44t85.5 -144h2q49 66 172 127t250 61q143 0 199.5 -95.5t56.5 -321.5v-627h-129v604q0 177 -34.5 247.5t-133.5 70.5q-104 0 -211.5 -60t-155.5 -131q4 -122 4 -143v-588h-131v604q0 178 -35.5 248
t-136.5 70t-198 -56.5t-162 -136.5v-729h-129z" />
    <glyph glyph-name="n" unicode="n" 
d="M193 1024h129v-168q63 76 178.5 132t238.5 56q152 0 228.5 -99.5t76.5 -317.5v-627h-129v604q0 168 -55 243t-164 75q-106 0 -209 -57t-165 -136v-729h-129v1024z" />
    <glyph glyph-name="o" unicode="o" horiz-adv-x="1161" 
d="M84 512q0 105 35.5 201.5t99 170t158 117t205.5 43.5q146 0 260.5 -74.5t174.5 -195.5t60 -262t-60 -262t-174.5 -195.5t-260.5 -74.5q-111 0 -205.5 43.5t-158 117t-99 170t-35.5 201.5zM215 512q0 -106 44 -198.5t129.5 -152t193.5 -59.5t193 59.5t128 152t43 198.5
t-43 198.5t-128 152t-193 59.5t-193.5 -59.5t-129.5 -152t-44 -198.5z" />
    <glyph glyph-name="p" unicode="p" 
d="M195 -500v1524h129v-131q164 151 342 151q140 0 248 -75t163.5 -195t55.5 -262t-56 -262t-165.5 -195t-252.5 -75q-114 0 -200 37.5t-135 84.5v-602h-129zM324 780v-549q140 -129 313 -129q111 0 196.5 58t128 150.5t42.5 201.5q0 170 -100.5 290t-268.5 120
q-163 0 -311 -142z" />
    <glyph glyph-name="q" unicode="q" 
d="M559 -20q-143 0 -252.5 75t-165 195t-55.5 262t55.5 262t164 195t249.5 75q176 0 340 -151v131h129v-1524h-129v602q-49 -47 -135.5 -84.5t-200.5 -37.5zM217 512q0 -110 42 -202.5t126.5 -150t196.5 -57.5q173 0 313 129v549q-148 142 -311 142q-85 0 -155.5 -33.5
t-116 -90t-70.5 -130.5t-25 -156z" />
    <glyph glyph-name="r" unicode="r" horiz-adv-x="794" 
d="M193 0v1024h129v-190q26 35 46 59t53 55t64.5 50t75.5 32.5t92 13.5q65 0 109 -14l-12 -131q-67 19 -105 19q-52 0 -100.5 -19.5t-90.5 -56t-70.5 -68t-61.5 -76.5v-698h-129z" />
    <glyph glyph-name="s" unicode="s" horiz-adv-x="909" 
d="M104 76v131q191 -109 347 -109q111 0 174 47t63 125q0 53 -31.5 92t-82 62.5t-111.5 43.5t-122.5 43t-112 53t-82 81.5t-31.5 120.5q0 129 99 203.5t247 74.5q169 0 303 -83l-12 -125q-134 90 -277 90q-99 0 -164 -42t-65 -112q0 -40 24.5 -71t65 -50t92 -38.5t105 -35.5
t105 -42t92 -57.5t65 -83.5t24.5 -118q0 -137 -99.5 -216.5t-266.5 -79.5q-174 0 -349 96z" />
    <glyph glyph-name="t" unicode="t" horiz-adv-x="749" 
d="M63 1024h138l2 293h125l2 -293h299l-8 -117h-293v-680q0 -125 143 -125q51 0 162 29v-119q-98 -32 -178 -32q-256 0 -256 235v692h-136v117z" />
    <glyph glyph-name="u" unicode="u" horiz-adv-x="1212" 
d="M166 397v627h129v-602q0 -167 56 -243.5t165 -76.5q104 0 207.5 57.5t165.5 135.5v729h129v-1024h-129v168q-63 -76 -178.5 -132t-237.5 -56q-152 0 -229.5 100.5t-77.5 316.5z" />
    <glyph glyph-name="v" unicode="v" horiz-adv-x="1021" 
d="M469 -4l-432 1016v12h137l336 -797h2l336 797h137v-12l-432 -1016h-84z" />
    <glyph glyph-name="w" unicode="w" horiz-adv-x="1484" 
d="M375 -4l-338 1016v12h135l252 -780h2l260 780h113l260 -780h2l252 780h135v-12l-336 -1016h-88l-279 817h-4l-280 -817h-86z" />
    <glyph glyph-name="x" unicode="x" horiz-adv-x="1028" 
d="M37 12l397 512l-373 488v12h150l305 -393l301 393h152v-12l-373 -490l393 -510v-12h-149l-326 416l-326 -416h-151v12z" />
    <glyph glyph-name="y" unicode="y" horiz-adv-x="1026" 
d="M37 1024h137l338 -848h2l338 848h135v-12l-502 -1245q-27 -68 -52.5 -113.5t-61.5 -85.5t-85 -59t-112 -19q-29 0 -43 2l-49 127q25 -6 76 -6q45 0 77.5 13.5t57.5 46.5t40 63t38 88l71 182l-405 1006v12z" />
    <glyph glyph-name="z" unicode="z" horiz-adv-x="968" 
d="M879 117l-9 -117h-778v80l604 827h-575v117h741v-106l-583 -801h600z" />
    <glyph glyph-name="braceleft" unicode="{" horiz-adv-x="628" 
d="M25 707q101 18 147.5 63.5t46.5 136.5v373q0 127 65.5 193.5t196.5 66.5h109v-123h-96q-144 0 -144 -147v-381q0 -165 -131 -227q-35 -18 -78 -27v-2q209 -46 209 -252v-387q0 -150 144 -150h96v-123h-109q-129 0 -195.5 68t-66.5 195v378q0 90 -46.5 136t-147.5 65v144z
" />
    <glyph glyph-name="bar" unicode="|" horiz-adv-x="538" 
d="M334 -279h-131v1819h131v-1819z" />
    <glyph glyph-name="braceright" unicode="}" horiz-adv-x="677" 
d="M135 1417h-96v123h108q131 0 197 -66.5t66 -193.5v-373q0 -91 46.5 -136.5t147.5 -63.5v-144q-101 -18 -147.5 -64.5t-46.5 -136.5v-376q0 -128 -66.5 -195t-196.5 -67h-108v122h96q144 0 144 150v385q0 207 208 252v2q-42 9 -77 27q-131 62 -131 227v381q0 147 -144 147
z" />
    <glyph glyph-name="asciitilde" unicode="~" horiz-adv-x="745" 
d="M385 647l-111 78q-44 27 -69 27q-34 0 -45 -30.5t4 -121.5h-105q-25 128 13.5 195t126.5 67q43 0 79 -15.5t82 -47.5l109 -76q42 -29 72 -29q34 0 44.5 31.5t-3.5 122.5h104q25 -129 -13 -195.5t-126 -66.5q-73 0 -162 61z" />
    <glyph glyph-name="exclamdown" unicode="&#xa1;" horiz-adv-x="604" 
d="M371 -500h-135v101l14 938h106l15 -938v-101zM197 860q0 44 30 74.5t74 30.5t75.5 -30.5t31.5 -74.5t-31.5 -75t-75.5 -31t-74 31t-30 75z" />
    <glyph glyph-name="cent" unicode="&#xa2;" horiz-adv-x="995" 
d="M504 190q-196 23 -321.5 170t-125.5 359q0 215 122.5 360.5t324.5 167.5v191h123v-189q143 -12 256 -90l-15 -125q-118 82 -241 92q-14 2 -47 2q-175 0 -283.5 -116t-108.5 -293q0 -174 111 -292t281 -118q162 0 301 103v-136q-101 -72 -254 -88v-192h-123v194z" />
    <glyph glyph-name="sterling" unicode="&#xa3;" horiz-adv-x="1024" 
d="M139 0l-28 92q61 78 96.5 152.5t46 144.5t6.5 130t-20 128h-125v123h88q-3 9 -17.5 54.5t-18.5 60.5t-14.5 53.5t-14 61.5t-7.5 55.5t-4 62.5q0 148 95.5 242t275.5 94q209 0 405 -108l-22 -138q-95 59 -183 90t-190 31q-246 0 -246 -223q0 -55 12.5 -119t24 -102
t37.5 -115h504v-123h-469q22 -88 24.5 -163t-26 -170.5t-95.5 -190.5h666l-10 -123h-791z" />
    <glyph glyph-name="currency" unicode="&#xa4;" horiz-adv-x="944" 
d="M735 514l137 -137l-61 -66l-137 135q-81 -63 -203 -63q-123 0 -201 63l-137 -137l-63 66l137 139q-53 82 -53 186q0 113 53 187l-137 137l63 68l135 -136q83 64 203 64q122 0 205 -64l135 136l61 -68l-137 -137q56 -78 56 -187q0 -108 -56 -186zM246 700q0 -101 62 -163
t163 -62t164 62t63 163q0 104 -62.5 166t-164.5 62t-163.5 -62t-61.5 -166z" />
    <glyph glyph-name="yen" unicode="&#xa5;" horiz-adv-x="1142" 
d="M496 764l-461 657v13h139l399 -564l396 564h141v-13l-461 -657h369v-96h-379v-197h379v-98h-379v-373h-133v373h-381v98h381v197h-381v96h371z" />
    <glyph glyph-name="brokenbar" unicode="&#xa6;" horiz-adv-x="526" 
d="M203 -279v832h121v-832h-121zM203 737v803h121v-803h-121z" />
    <glyph glyph-name="section" unicode="&#xa7;" horiz-adv-x="1189" 
d="M137 -383v133q111 -63 218 -101t227 -38q179 0 274.5 77.5t95.5 198.5q0 62 -27.5 110.5t-74 80.5t-107 58t-127.5 48.5t-133.5 46t-127 55.5t-107 72.5t-74 101.5t-27.5 138q0 151 105 248q-105 95 -105 241q0 163 125 265t328 102q224 0 418 -119l-14 -131
q-98 63 -193.5 96t-208.5 33q-151 0 -238.5 -66.5t-87.5 -174.5q0 -56 27.5 -100t74.5 -73.5t107.5 -54t127 -47t133.5 -47.5t127.5 -59t107 -77t73.5 -107.5t27 -145.5q3 -145 -88 -250q90 -93 90 -240q0 -183 -133 -292t-364 -109q-131 0 -236.5 34.5t-212.5 92.5z
M360 772q-84 -63 -84 -170q0 -68 39.5 -118t110 -83t145 -58t167 -59.5t153.5 -70.5q61 67 61 164q0 61 -28 109.5t-71.5 79.5t-107.5 59.5t-124 47t-134.5 46t-126.5 53.5z" />
    <glyph glyph-name="dieresis" unicode="&#xa8;" horiz-adv-x="751" 
d="M453 1720q0 42 32 74.5t74 32.5t74.5 -32.5t32.5 -74.5q0 -44 -32 -75t-75 -31t-74.5 31t-31.5 75zM86 1720q0 42 32.5 74.5t74.5 32.5q41 0 73.5 -33t32.5 -74q0 -44 -32 -75t-74 -31q-43 0 -75 31t-32 75z" />
    <glyph glyph-name="copyright" unicode="&#xa9;" horiz-adv-x="1662" 
d="M94 717q0 150 58 286.5t157 235.5t235.5 157t286.5 58t287 -58t235.5 -157t157 -235.5t58.5 -286.5t-58.5 -286.5t-157 -235.5t-235.5 -157t-287 -58t-286.5 58t-235.5 157t-157 235.5t-58 286.5zM176 717q0 -177 88 -328t239 -239.5t328 -88.5q133 0 254 52.5t209 140.5
t140.5 209t52.5 254q0 177 -88.5 328t-239.5 239t-328 88q-133 0 -254 -52t-209 -140t-140 -209t-52 -254zM1020 528v-90q-72 -43 -176 -43q-141 0 -227.5 94t-86.5 232q0 136 86.5 229.5t227.5 93.5q94 0 178 -43l-10 -88q-72 52 -164 52q-111 0 -173.5 -69.5t-62.5 -174.5
t62.5 -175.5t173.5 -70.5q90 0 172 53z" />
    <glyph glyph-name="ordfeminine" unicode="&#xaa;" horiz-adv-x="669" 
d="M258 838q-84 0 -133 43.5t-49 124.5q0 95 73.5 140.5t186.5 45.5q69 0 135 -16v30q0 92 -39 129t-113 37q-104 0 -184 -47l-6 88q102 41 205 41q108 0 164.5 -57.5t56.5 -184.5v-362h-84v72q-95 -84 -213 -84zM336 1120q-80 0 -127 -27t-47 -83q0 -48 31 -72.5t81 -24.5
q101 0 197 82v111q-68 14 -135 14z" />
    <glyph glyph-name="guillemotleft" unicode="&#xab;" horiz-adv-x="901" 
d="M412 522v58l338 432l104 -74l-299 -389l299 -389l-106 -72zM-2 522v58l340 432l104 -74l-301 -389l301 -389l-106 -72z" />
    <glyph glyph-name="logicalnot" unicode="&#xac;" horiz-adv-x="886" 
d="M51 717h709v-430h-127v309h-582v121z" />
    <glyph glyph-name="uni00AD" unicode="&#xad;" horiz-adv-x="1146" 
d="M1047 594h-947v123h947v-123z" />
    <glyph glyph-name="registered" unicode="&#xae;" horiz-adv-x="1662" 
d="M94 717q0 150 58 286.5t157 235.5t235.5 157t286.5 58t287 -58t235.5 -157t157 -235.5t58.5 -286.5t-58.5 -286.5t-157 -235.5t-235.5 -157t-287 -58t-286.5 58t-235.5 157t-157 235.5t-58 286.5zM831 1372q-133 0 -254 -52t-209 -140t-140 -209t-52 -254q0 -177 88 -328
t239 -239.5t328 -88.5q133 0 254 52.5t209 140.5t140.5 209t52.5 254q0 177 -88.5 328t-239.5 239t-328 88zM635 399v641h213q103 0 157 -54t54 -140q0 -76 -42 -128.5t-122 -64.5l170 -247v-7h-86l-172 250h-96v-250h-76zM711 967v-244h129q71 0 107 32.5t36 90.5
q0 121 -143 121h-129z" />
    <glyph glyph-name="macron" unicode="&#xaf;" horiz-adv-x="673" 
d="M80 1636v121h514v-121h-514z" />
    <glyph glyph-name="degree" unicode="&#xb0;" horiz-adv-x="792" 
d="M88 1147q0 129 88.5 218t218.5 89t220 -89t90 -218q0 -132 -89.5 -221.5t-220.5 -89.5q-130 0 -218.5 89.5t-88.5 221.5zM174 1147q0 -95 63.5 -159t157.5 -64q93 0 158 64t65 159q0 87 -66 153t-157 66q-92 0 -156.5 -65.5t-64.5 -153.5z" />
    <glyph glyph-name="plusminus" unicode="&#xb1;" horiz-adv-x="1134" 
d="M106 653v123h400v400h123v-400h399v-123h-399v-399h-123v399h-400zM106 121h922v-121h-922v121z" />
    <glyph glyph-name="twosuperior" unicode="&#xb2;" horiz-adv-x="829" 
d="M82 756v104q103 64 180.5 122.5t147 127t106.5 142t37 147.5q0 80 -45 133t-141 53q-63 0 -131.5 -22.5t-124.5 -61.5v121q57 39 131 61.5t147 22.5q142 0 213.5 -80.5t71.5 -204.5q0 -58 -15 -114t-47 -108t-62.5 -92.5t-81 -88.5t-81.5 -74.5t-84 -69.5h420l-6 -118
h-635z" />
    <glyph glyph-name="threesuperior" unicode="&#xb3;" horiz-adv-x="811" 
d="M692 1608l-196 -295q107 -24 168 -91t61 -178q0 -131 -86.5 -218t-245.5 -87q-152 0 -278 80l-4 131q129 -84 260 -84q117 0 175 52.5t58 128.5q0 86 -70 139t-196 53h-10v10l213 320h-424l6 119h569v-80z" />
    <glyph glyph-name="acute" unicode="&#xb4;" horiz-adv-x="360" 
d="M426 1874l-240 -313h-116v14l213 315h143v-16z" />
    <glyph glyph-name="mu" unicode="&#xb5;" horiz-adv-x="1236" 
d="M193 1024h129v-602q0 -167 56 -243.5t165 -76.5q104 0 207 57.5t165 135.5v729h132v-1024h-132v168q-62 -75 -173 -131.5t-218 -56.5q-119 0 -202 71v-551h-129v1524z" />
    <glyph glyph-name="paragraph" unicode="&#xb6;" horiz-adv-x="978" 
d="M786 1434v-1495q0 -88 -16 -159t-47 -125.5t-66 -93.5t-84 -79l-84 86q68 64 90 95q74 100 74 276v614h-53q-239 0 -377.5 114.5t-138.5 327.5q0 214 138 326.5t378 112.5h186z" />
    <glyph glyph-name="periodcentered" unicode="&#xb7;" horiz-adv-x="419" 
d="M104 657q0 44 31.5 75.5t75.5 31.5t75 -31.5t31 -75.5q0 -43 -31 -73.5t-75 -30.5t-75.5 30.5t-31.5 73.5z" />
    <glyph glyph-name="cedilla" unicode="&#xb8;" horiz-adv-x="475" 
d="M160 -223l-33 39l51 200h98l-38 -157q85 0 144.5 -44.5t59.5 -127.5q0 -91 -64 -142t-175 -51q-92 0 -191 31l-16 110q101 -36 190 -36q146 0 146 88q0 25 -12.5 43t-29 27t-43.5 13.5t-44 5.5t-43 1z" />
    <glyph glyph-name="onesuperior" unicode="&#xb9;" horiz-adv-x="811" 
d="M715 752h-619v118h252v674l-246 -59v123l306 80h59v-818h248v-118z" />
    <glyph glyph-name="ordmasculine" unicode="&#xba;" horiz-adv-x="735" 
d="M80 1145q0 127 80 218t207 91q128 0 208 -91t80 -218q0 -126 -80 -216.5t-208 -90.5q-127 0 -207 90.5t-80 216.5zM164 1145q0 -92 56.5 -159.5t146.5 -67.5t147 67.5t57 159.5t-57 160.5t-147 68.5t-146.5 -68.5t-56.5 -160.5z" />
    <glyph glyph-name="guillemotright" unicode="&#xbb;" horiz-adv-x="899" 
d="M487 580v-58l-335 -434l-107 72l301 389l-301 389l105 74zM901 580v-58l-336 -434l-106 72l299 389l-299 389l104 74z" />
    <glyph glyph-name="onequarter" unicode="&#xbc;" horiz-adv-x="1806" 
d="M1040 313l318 623h135l-303 -590h244v248h116v-248h179l-11 -117h-168v-229h-120v229h-367zM348 -16v14l952 1434h132v-15l-953 -1433h-131zM717 752h-619v118h252v674l-246 -59v123l308 80h57v-818h248v-118z" />
    <glyph glyph-name="onehalf" unicode="&#xbd;" horiz-adv-x="1882" 
d="M1792 0h-635v104q81 51 145.5 96.5t127 101t104 108.5t67 113t25.5 120q0 80 -44 133t-140 53q-63 0 -131.5 -22.5t-124.5 -61.5v121q57 40 130.5 62t145.5 22q143 0 215 -80t72 -204q0 -58 -15 -114t-47 -108t-62.5 -92.5t-81 -88.5t-81.5 -74.5t-84 -69.5h420zM356 -2
l953 1434h131v-15l-953 -1433h-131v14zM98 870h252v674l-246 -59v123l308 80h57v-818h248v-118h-619v118z" />
    <glyph glyph-name="threequarters" unicode="&#xbe;" horiz-adv-x="1796" 
d="M98 950q133 -84 262 -84q117 0 175.5 52.5t58.5 128.5q0 86 -70 139t-196 53h-11v10l213 320h-424l7 119h569v-80l-197 -295q107 -25 168.5 -91.5t61.5 -177.5q0 -131 -86.5 -218t-245.5 -87q-153 0 -279 80zM1030 313l318 623h135l-303 -590h245v248h115v-248h178
l-10 -117h-168v-229h-121v229h-366zM338 -2l952 1434h131v-15l-952 -1433h-131v14z" />
    <glyph glyph-name="questiondown" unicode="&#xbf;" horiz-adv-x="774" 
d="M571 860q0 -44 -30 -75t-74 -31t-75.5 31t-31.5 75t31.5 74.5t75.5 30.5t74 -30.5t30 -74.5zM688 -317v-136q-130 -57 -266 -57q-178 0 -275.5 86t-97.5 227q0 72 23 138t58.5 117.5t78 100t83 93t71.5 88.5t44 95t1 104h129q12 -58 -1.5 -115t-44 -104.5t-70 -95
t-81.5 -94.5t-77.5 -93.5t-58 -101.5t-22.5 -111q0 -94 64.5 -151.5t189.5 -57.5q127 0 252 68z" />
    <glyph glyph-name="Agrave" unicode="&#xc0;" horiz-adv-x="1363" 
d="M35 12l581 1422h132l581 -1422v-12h-133l-149 365h-730l-149 -365h-133v12zM365 489h632l-313 773h-2zM381 1890h143l215 -315v-14h-116l-242 313v16z" />
    <glyph glyph-name="Aacute" unicode="&#xc1;" horiz-adv-x="1363" 
d="M35 0v12l581 1422h134l581 -1422v-12h-135l-149 365h-728l-151 -365h-133zM365 489h632l-313 773h-2zM627 1561v14l215 315h141v-16l-240 -313h-116z" />
    <glyph glyph-name="Acircumflex" unicode="&#xc2;" horiz-adv-x="1363" 
d="M35 0v12l581 1422h132l583 -1422v-12h-135l-149 365h-730l-149 -365h-133zM682 1262l-317 -773h632l-313 773h-2zM524 1548h-123v17l211 325h142l211 -325v-17h-123l-158 242h-2z" />
    <glyph glyph-name="Atilde" unicode="&#xc3;" horiz-adv-x="1363" 
d="M35 12l581 1422h132l581 -1422v-12h-133l-149 365h-730l-149 -365h-133v12zM365 489h632l-313 773h-2zM369 1569q-26 128 13 194t128 66q75 0 160 -62l110 -77q39 -27 70 -27q73 0 41 152h104q27 -128 -12 -195.5t-127 -67.5q-74 0 -162 64l-108 76q-40 28 -72 28
q-71 0 -39 -151h-106z" />
    <glyph glyph-name="Adieresis" unicode="&#xc4;" horiz-adv-x="1363" 
d="M168 0h-133v12l581 1422h132l581 -1422v-12h-133l-149 365h-730zM365 489h632l-313 773h-2zM866 1589q-43 0 -74.5 31.5t-31.5 75.5q0 43 31.5 74.5t74.5 31.5t75 -31.5t32 -74.5q0 -44 -32 -75.5t-75 -31.5zM500 1589q-44 0 -75.5 32t-31.5 75t31.5 74.5t75.5 31.5
q41 0 72.5 -31.5t31.5 -74.5t-31.5 -75t-72.5 -32z" />
    <glyph glyph-name="Aring" unicode="&#xc5;" horiz-adv-x="1363" 
d="M35 0v12l581 1422h132l583 -1422v-12h-135l-149 365h-730l-149 -365h-133zM365 489h632l-313 773h-2zM682 1499q-85 0 -143 58t-58 143q0 86 58 144.5t143 58.5q84 0 143.5 -58.5t59.5 -144.5q0 -84 -59.5 -142.5t-143.5 -58.5zM573 1700q0 -48 31 -80.5t78 -32.5
t78 32.5t31 80.5q0 45 -31.5 77.5t-77.5 32.5t-77.5 -32.5t-31.5 -77.5z" />
    <glyph glyph-name="AE" unicode="&#xc6;" horiz-adv-x="1914" 
d="M33 0v18l758 1416h970v-123h-770v-527h729v-122h-729v-539h781l-9 -123h-903v365h-498l-196 -365h-133zM426 487h434v803h-2z" />
    <glyph glyph-name="Ccedilla" unicode="&#xc7;" horiz-adv-x="1343" 
d="M94 717q0 152 51.5 287t144 234.5t229.5 157.5t298 58q222 0 408 -100l-21 -142q-163 117 -370 117q-139 0 -254.5 -50t-191.5 -134.5t-117.5 -195t-41.5 -232.5t41.5 -232.5t117.5 -195.5t191.5 -135t254.5 -50q208 0 387 125l2 -149q-154 -91 -373 -100l-49 -121
q82 -3 138 -49t56 -129q0 -87 -65 -138t-174 -51q-81 0 -166 29v108q80 -30 151 -30q70 0 105 22t35 62q0 92 -172 92l-27 41l70 166q-197 15 -348 117.5t-230.5 263.5t-79.5 354z" />
    <glyph glyph-name="Egrave" unicode="&#xc8;" horiz-adv-x="1257" 
d="M203 0v1434h901v-123h-768v-525h729v-124h-729v-539h780l-10 -123h-903zM418 1874v16h143l213 -315v-14h-117z" />
    <glyph glyph-name="Eacute" unicode="&#xc9;" horiz-adv-x="1257" 
d="M203 0v1434h901v-123h-768v-525h729v-124h-729v-539h780l-10 -123h-903zM559 1561v14l213 315h143v-16l-239 -313h-117z" />
    <glyph glyph-name="Ecircumflex" unicode="&#xca;" horiz-adv-x="1257" 
d="M205 0v1434h901v-123h-770v-525h729v-124h-729v-539h780l-8 -123h-903zM377 1548v17l211 325h141l211 -325v-17h-123l-158 242h-2l-157 -242h-123z" />
    <glyph glyph-name="Edieresis" unicode="&#xcb;" horiz-adv-x="1257" 
d="M205 0v1434h901v-123h-770v-525h729v-124h-729v-539h780l-8 -123h-903zM846 1589q-43 0 -75 31.5t-32 75.5q0 43 32 74.5t75 31.5t74.5 -31.5t31.5 -74.5q0 -44 -31.5 -75.5t-74.5 -31.5zM373 1696q0 42 32 74t74 32q41 0 73 -32.5t32 -73.5q0 -44 -31.5 -75.5
t-73.5 -31.5q-43 0 -74.5 31.5t-31.5 75.5z" />
    <glyph glyph-name="Igrave" unicode="&#xcc;" horiz-adv-x="538" 
d="M336 0h-131v1434h131v-1434zM213 1561l-240 313v16h144l215 -315v-14h-119z" />
    <glyph glyph-name="Iacute" unicode="&#xcd;" horiz-adv-x="538" 
d="M336 0h-133v1434h133v-1434zM565 1874l-239 -313h-117v14l215 315h141v-16z" />
    <glyph glyph-name="Icircumflex" unicode="&#xce;" horiz-adv-x="538" 
d="M203 0v1434h133v-1434h-133zM-14 1548v17l211 325h141l213 -325v-17h-125l-156 242h-4l-157 -242h-123z" />
    <glyph glyph-name="Idieresis" unicode="&#xcf;" horiz-adv-x="538" 
d="M334 0h-131v1434h131v-1434zM319 1696q0 43 32 74.5t75 31.5q41 0 72.5 -31.5t31.5 -74.5q0 -44 -31 -75.5t-73 -31.5q-43 0 -75 31.5t-32 75.5zM8 1696q0 42 31.5 74t73.5 32q41 0 73.5 -32.5t32.5 -73.5q0 -44 -32 -75.5t-74 -31.5q-43 0 -74 31.5t-31 75.5z" />
    <glyph glyph-name="Eth" unicode="&#xd0;" horiz-adv-x="1505" 
d="M55 672v110h154v652h504q201 0 362 -98.5t248.5 -262t87.5 -356.5t-87.5 -356.5t-248.5 -262t-362 -98.5h-504v672h-154zM711 1311h-371v-529h373v-108h-373v-551h371q100 0 190.5 33t157.5 90t116.5 132.5t75 162t25.5 176.5t-25.5 176.5t-75 162t-116.5 132.5
t-157.5 90t-190.5 33z" />
    <glyph glyph-name="Ntilde" unicode="&#xd1;" horiz-adv-x="1581" 
d="M205 0v1434h125l915 -1174v1174h131v-1436h-92l-948 1208v-1206h-131zM463 1569q-26 128 13 194t128 66q75 0 160 -62l110 -77q39 -27 72 -27q71 0 39 152h107q25 -128 -13.5 -195.5t-126.5 -67.5q-73 0 -161 64l-111 76q-40 28 -72 28q-71 0 -39 -151h-106z" />
    <glyph glyph-name="Ograve" unicode="&#xd2;" horiz-adv-x="1558" 
d="M94 717q0 143 50 276.5t137.5 235.5t217.5 163.5t279 61.5t279 -61.5t218.5 -163.5t138.5 -235.5t50 -276.5t-50 -276.5t-137.5 -235.5t-217.5 -163.5t-279 -61.5t-279 61.5t-218.5 163.5t-138.5 235.5t-50 276.5zM229 717q0 -113 39.5 -222t109 -196.5t174.5 -141
t226 -53.5q98 0 186 35t153.5 95t114 138t73 166.5t24.5 178.5t-24.5 178.5t-73 166.5t-114 137.5t-153.5 94.5t-186 35q-121 0 -226 -53.5t-174.5 -140.5t-109 -196t-39.5 -222zM776 1561l-239 313v16h143l213 -315v-14h-117z" />
    <glyph glyph-name="Oacute" unicode="&#xd3;" horiz-adv-x="1558" 
d="M94 717q0 143 50 276.5t137.5 235.5t217.5 163.5t279 61.5t279 -61.5t218.5 -163.5t138.5 -235.5t50 -276.5t-50 -276.5t-137.5 -235.5t-217.5 -163.5t-279 -61.5t-279 61.5t-218.5 163.5t-138.5 235.5t-50 276.5zM229 717q0 -113 39.5 -222t109 -196.5t174.5 -141
t226 -53.5q98 0 186 35t153.5 95t114 138t73 166.5t24.5 178.5t-24.5 178.5t-73 166.5t-114 137.5t-153.5 94.5t-186 35q-121 0 -226 -53.5t-174.5 -140.5t-109 -196t-39.5 -222zM1026 1874l-240 -313h-116v14l215 315h141v-16z" />
    <glyph glyph-name="Ocircumflex" unicode="&#xd4;" horiz-adv-x="1558" 
d="M780 -20q-149 0 -279 61.5t-218.5 163.5t-138.5 235.5t-50 276.5t50 276.5t137.5 235.5t217.5 163.5t279 61.5t279 -61.5t218.5 -163.5t138.5 -235.5t50 -276.5t-50 -276.5t-137.5 -235.5t-217.5 -163.5t-279 -61.5zM778 1329q-121 0 -226 -53.5t-174.5 -140.5t-109 -196
t-39.5 -222t39.5 -222t109 -196.5t174.5 -141t226 -53.5q98 0 186 35t153.5 95t114 138t73 166.5t24.5 178.5t-24.5 178.5t-73 166.5t-114 137.5t-153.5 94.5t-186 35zM498 1548v17l211 325h141l211 -325v-17h-123l-158 242h-2l-157 -242h-123z" />
    <glyph glyph-name="Otilde" unicode="&#xd5;" horiz-adv-x="1558" 
d="M94 717q0 143 50 276.5t138.5 235.5t218.5 163.5t279 61.5t279 -61.5t217.5 -163.5t137.5 -235.5t50 -276.5t-50 -276.5t-137.5 -235.5t-217.5 -163.5t-279 -61.5t-279 61.5t-218.5 163.5t-138.5 235.5t-50 276.5zM229 717q0 -90 24.5 -178.5t73 -166.5t114 -138
t153.5 -95t186 -35q97 0 185 35t153.5 95t114 138t73.5 166.5t25 178.5q0 112 -40 221.5t-109.5 196.5t-175 140.5t-226.5 53.5q-98 0 -186 -35t-153.5 -94.5t-114 -137.5t-73 -166.5t-24.5 -178.5zM768 1767l109 -77q44 -27 71 -27q34 0 44.5 31.5t-3.5 120.5h105
q25 -128 -13.5 -195.5t-126.5 -67.5q-73 0 -161 64l-111 76q-40 28 -70 28q-73 0 -41 -151h-104q-26 128 13 194t128 66q71 0 160 -62z" />
    <glyph glyph-name="Odieresis" unicode="&#xd6;" horiz-adv-x="1558" 
d="M94 717q0 143 50 276.5t137.5 235.5t217.5 163.5t279 61.5t279 -61.5t218.5 -163.5t138.5 -235.5t50 -276.5t-50 -276.5t-137.5 -235.5t-217.5 -163.5t-279 -61.5t-279 61.5t-218.5 163.5t-138.5 235.5t-50 276.5zM229 717q0 -113 39.5 -222t109 -196.5t174.5 -141
t226 -53.5q98 0 186 35t153.5 95t114 138t73 166.5t24.5 178.5t-24.5 178.5t-73 166.5t-114 137.5t-153.5 94.5t-186 35q-121 0 -226 -53.5t-174.5 -140.5t-109 -196t-39.5 -222zM856 1720q0 42 32.5 74.5t74.5 32.5t74 -32.5t32 -74.5q0 -44 -31.5 -75t-74.5 -31t-75 31
t-32 75zM489 1720q0 42 32.5 74.5t74.5 32.5q41 0 73.5 -33t32.5 -74q0 -44 -32 -75t-74 -31q-43 0 -75 31t-32 75z" />
    <glyph glyph-name="multiply" unicode="&#xd7;" horiz-adv-x="798" 
d="M313 657l-282 283l86 88l282 -283l283 281l86 -86l-283 -283l283 -282l-86 -86l-283 282l-282 -282l-86 86z" />
    <glyph glyph-name="Oslash" unicode="&#xd8;" horiz-adv-x="1558" 
d="M264 227q-82 100 -126 227.5t-44 262.5q0 143 50 276.5t137.5 235.5t217.5 163.5t279 61.5q246 0 428 -158l137 156l89 -72l-146 -166q85 -100 131.5 -229.5t46.5 -267.5q0 -143 -50 -276.5t-138.5 -235.5t-218.5 -163.5t-279 -61.5q-250 0 -434 163l-129 -147l-88 76z
M1196 1114l-766 -872q151 -138 348 -138q98 0 186 35t153.5 95t114 138t73 166.5t24.5 178.5q0 105 -34.5 209t-98.5 188zM354 328l766 870q-147 131 -342 131q-98 0 -186 -35t-153.5 -94.5t-114 -137.5t-73 -166.5t-24.5 -178.5q0 -214 127 -389z" />
    <glyph glyph-name="Ugrave" unicode="&#xd9;" horiz-adv-x="1357" 
d="M160 535v899h131v-885q0 -220 98.5 -332.5t290.5 -112.5t288.5 112.5t96.5 332.5v885h133v-899q0 -265 -133.5 -410t-384.5 -145q-253 0 -386.5 145t-133.5 410zM426 1874v16h143l213 -315v-14h-116z" />
    <glyph glyph-name="Uacute" unicode="&#xda;" horiz-adv-x="1357" 
d="M680 -20q-253 0 -386.5 145t-133.5 410v899h131v-885q0 -220 98.5 -332.5t290.5 -112.5t289.5 112.5t97.5 332.5v885h131v-899q0 -265 -133.5 -410t-384.5 -145zM573 1575l215 315h144v-16l-240 -313h-119v14z" />
    <glyph glyph-name="Ucircumflex" unicode="&#xdb;" horiz-adv-x="1357" 
d="M160 535v899h131v-885q0 -220 98.5 -332.5t290.5 -112.5t289.5 112.5t97.5 332.5v885h131v-899q0 -265 -132.5 -410t-385.5 -145t-386.5 145t-133.5 410zM397 1548v17l213 325h142l211 -325v-17h-123l-158 242h-4l-156 -242h-125z" />
    <glyph glyph-name="Udieresis" unicode="&#xdc;" horiz-adv-x="1357" 
d="M160 535v899h131v-885q0 -220 98.5 -332.5t290.5 -112.5t288.5 112.5t96.5 332.5v885h133v-899q0 -265 -133.5 -410t-384.5 -145q-253 0 -386.5 145t-133.5 410zM756 1696q0 43 31.5 74.5t74.5 31.5t75 -31.5t32 -74.5q0 -44 -32 -75.5t-75 -31.5t-74.5 31.5t-31.5 75.5z
M496 1589q-43 0 -75 31.5t-32 75.5q0 42 32.5 74t74.5 32q41 0 73.5 -32.5t32.5 -73.5q0 -44 -32 -75.5t-74 -31.5z" />
    <glyph glyph-name="Yacute" unicode="&#xdd;" horiz-adv-x="1142" 
d="M506 649l-471 772v13h139l397 -650l398 650h139v-13l-471 -772v-649h-131v649zM483 1575l215 315h144v-16l-242 -313h-117v14z" />
    <glyph glyph-name="Thorn" unicode="&#xde;" horiz-adv-x="1198" 
d="M203 1434h131v-279h317q117 0 208.5 -33t149 -92t87.5 -137.5t30 -171.5t-30 -171.5t-87.5 -137.5t-149 -92t-208.5 -33h-317v-287h-131v1434zM637 1030h-303v-627h303q174 0 264 86.5t90 231.5t-89 227t-265 82z" />
    <glyph glyph-name="germandbls" unicode="&#xdf;" horiz-adv-x="1288" 
d="M655 1454q73 0 236.5 -9t257.5 -11v-123l-346 -469q85 -14 156 -46.5t128.5 -85.5t90 -135.5t32.5 -185.5q0 -180 -109 -294.5t-298 -114.5q-152 0 -273 59l-8 133q133 -68 273 -68q136 0 209 81t73 210q0 164 -119.5 263.5t-312.5 99.5h-12v51l366 498q-39 1 -169 8.5
t-191 7.5q-167 0 -238 -84t-71 -293v-946h-131v961q0 256 112 374.5t344 118.5z" />
    <glyph glyph-name="agrave" unicode="&#xe0;" horiz-adv-x="1085" 
d="M193 844l-9 127q171 73 338 73q197 0 296.5 -98t99.5 -319v-627h-132l2 125q-171 -145 -376 -145q-148 0 -235 74.5t-87 211.5q0 86 36 150.5t99.5 102t141.5 55.5t170 18q116 0 251 -27l-2 53q1 87 -16.5 147t-54 94t-85 48.5t-116.5 14.5q-175 0 -321 -78zM788 236v225
q-117 24 -237 24q-150 0 -240 -52t-90 -159q0 -91 60 -134.5t159 -43.5q180 0 348 140zM514 1221l-240 313v16h142l215 -315v-14h-117z" />
    <glyph glyph-name="aacute" unicode="&#xe1;" horiz-adv-x="1085" 
d="M788 236v225q-117 24 -237 24q-150 0 -240 -52t-90 -159q0 -91 60 -134.5t159 -43.5q180 0 348 140zM193 844l-9 127q171 73 338 73q197 0 296.5 -98t99.5 -319v-627h-132l2 125q-171 -145 -376 -145q-148 0 -235 74.5t-87 211.5q0 86 36 150.5t99.5 102t141.5 55.5
t170 18q116 0 251 -27l-2 53q1 87 -16.5 147t-54 94t-85 48.5t-116.5 14.5q-175 0 -321 -78zM788 1550v-16l-239 -313h-117v14l213 315h143z" />
    <glyph glyph-name="acircumflex" unicode="&#xe2;" horiz-adv-x="1085" 
d="M90 266q0 86 36 150.5t99.5 102t141.5 55.5t170 18q116 0 251 -27l-2 53q1 87 -16.5 147t-54 94t-85 48.5t-116.5 14.5q-175 0 -321 -78l-9 127q171 73 338 73q197 0 296.5 -98t99.5 -319v-627h-132l2 125q-171 -145 -376 -145q-148 0 -235 74.5t-87 211.5zM551 485
q-150 0 -240 -52t-90 -159q0 -91 60 -134.5t159 -43.5q180 0 348 140v225q-117 24 -237 24zM248 1192v14l221 344h121l221 -344v-14h-123l-158 242h-2l-157 -242h-123z" />
    <glyph glyph-name="atilde" unicode="&#xe3;" horiz-adv-x="1085" 
d="M502 1464l104 -80q29 -26 66 -26t48 30t-5 121h106q25 -129 -11.5 -195.5t-121.5 -66.5q-68 0 -153 62l-105 80q-33 26 -65 26q-37 0 -48.5 -30.5t2.5 -122.5h-104q-26 130 10.5 197t120.5 67q71 0 156 -62zM193 844l-9 127q171 73 338 73q197 0 296.5 -98t99.5 -319
v-627h-132l2 125q-171 -145 -376 -145q-148 0 -235 74.5t-87 211.5q0 86 36 150.5t99.5 102t141.5 55.5t170 18q116 0 251 -27l-2 53q1 87 -16.5 147t-54 94t-85 48.5t-116.5 14.5q-175 0 -321 -78zM788 236v225q-117 24 -237 24q-150 0 -240 -52t-90 -159q0 -91 60 -134.5
t159 -43.5q180 0 348 140z" />
    <glyph glyph-name="adieresis" unicode="&#xe4;" horiz-adv-x="1085" 
d="M596 1411q0 43 31.5 75t74.5 32q41 0 73 -32t32 -75q0 -42 -31.5 -73t-73.5 -31q-43 0 -74.5 30.5t-31.5 73.5zM229 1411q0 42 31.5 74.5t75.5 32.5q41 0 72.5 -32.5t31.5 -74.5t-31 -73t-73 -31q-44 0 -75.5 30.5t-31.5 73.5zM193 844l-9 127q171 73 338 73
q197 0 296.5 -98t99.5 -319v-627h-132l2 125q-171 -145 -376 -145q-148 0 -235 74.5t-87 211.5q0 86 36 150.5t99.5 102t141.5 55.5t170 18q116 0 251 -27l-2 53q1 87 -16.5 147t-54 94t-85 48.5t-116.5 14.5q-175 0 -321 -78zM788 236v225q-117 24 -237 24q-150 0 -240 -52
t-90 -159q0 -91 60 -134.5t159 -43.5q180 0 348 140z" />
    <glyph glyph-name="aring" unicode="&#xe5;" horiz-adv-x="1085" 
d="M193 844l-9 127q171 73 338 73q197 0 296.5 -98t99.5 -319v-627h-132l2 125q-171 -145 -376 -145q-148 0 -235 74.5t-87 211.5q0 86 36 150.5t99.5 102t141.5 55.5t170 18q116 0 251 -27l-2 53q1 87 -16.5 147t-54 94t-85 48.5t-116.5 14.5q-175 0 -321 -78zM788 236v225
q-117 24 -237 24q-150 0 -240 -52t-90 -159q0 -91 60 -134.5t159 -43.5q180 0 348 140zM330 1389q0 85 58.5 143.5t143.5 58.5q84 0 143.5 -59t59.5 -143t-59.5 -142.5t-143.5 -58.5q-85 0 -143.5 58t-58.5 143zM422 1389q0 -48 31.5 -80.5t78.5 -32.5t78 32.5t31 80.5
q0 45 -31.5 77.5t-77.5 32.5q-47 0 -78.5 -32.5t-31.5 -77.5z" />
    <glyph glyph-name="ae" unicode="&#xe6;" horiz-adv-x="1822" 
d="M432 -20q-159 0 -250.5 74.5t-91.5 213.5q0 85 36 149.5t99.5 101.5t141.5 55t170 18q116 0 251 -27l-2 53q1 87 -16.5 147t-54 94t-85 48.5t-116.5 14.5q-175 0 -321 -78l-9 127q171 73 332 73q281 0 365 -206q64 97 163 151.5t226 54.5q111 0 197 -40.5t138.5 -111
t79 -159.5t27.5 -192l-2 -80h-790q12 -171 114 -265t289 -94q177 0 346 91v-127q-154 -86 -344 -86q-292 0 -434 184q-204 -184 -459 -184zM920 569h659v9q0 69 -18.5 130t-55.5 111t-98.5 79.5t-140.5 29.5q-142 0 -236.5 -101t-109.5 -258zM551 485q-148 0 -239 -53
t-91 -158q0 -91 61.5 -134.5t161.5 -43.5q217 0 390 166q-40 87 -46 201q-125 22 -237 22z" />
    <glyph glyph-name="ccedilla" unicode="&#xe7;" horiz-adv-x="999" 
d="M561 -18q-211 12 -343 160t-132 370q0 232 142 382t370 150q175 0 311 -94l-14 -123q-138 95 -283 95q-183 0 -289 -116.5t-106 -293.5t106 -293.5t289 -116.5q151 0 295 101v-133q-114 -74 -248 -86l-49 -125q82 -2 138.5 -48.5t56.5 -129.5q0 -87 -65.5 -137
t-176.5 -50q-85 0 -164 27v108q92 -30 154 -30q137 0 137 84q0 94 -172 94l-26 39z" />
    <glyph glyph-name="egrave" unicode="&#xe8;" horiz-adv-x="1124" 
d="M90 498q0 149 57 272t170 198.5t263 75.5q109 0 193.5 -40.5t136 -111t78 -159.5t26.5 -192v-80h-793q12 -171 115.5 -265t292.5 -94q175 0 344 91v-130q-157 -83 -342 -83q-257 0 -399 142t-142 376zM221 569h662v9q0 93 -31 170t-102 128.5t-172 51.5
q-147 0 -243 -100.5t-114 -258.5zM332 1550h143l215 -315v-14h-117l-241 313v16z" />
    <glyph glyph-name="eacute" unicode="&#xe9;" horiz-adv-x="1124" 
d="M90 498q0 149 57 272t170 198.5t263 75.5q109 0 193.5 -40.5t136 -111t78 -159.5t26.5 -192v-80h-793q12 -171 115.5 -265t292.5 -94q175 0 344 91v-130q-157 -83 -342 -83q-257 0 -399 142t-142 376zM221 569h662v9q0 93 -31 170t-102 128.5t-172 51.5
q-147 0 -243 -100.5t-114 -258.5zM481 1221v14l213 315h144v-16l-240 -313h-117z" />
    <glyph glyph-name="ecircumflex" unicode="&#xea;" horiz-adv-x="1124" 
d="M90 498q0 149 57 272t169.5 198.5t261.5 75.5q109 0 194.5 -41t137 -112t78 -159.5t26.5 -190.5v-80h-793q12 -171 115.5 -265t292.5 -94q175 0 344 91v-130q-157 -83 -342 -83q-257 0 -399 142t-142 376zM221 569h662v9q0 93 -31 170t-102 128.5t-172 51.5
q-147 0 -243 -100.5t-114 -258.5zM287 1206l221 344h123l221 -344v-14h-123l-158 242h-4l-157 -242h-123v14z" />
    <glyph glyph-name="edieresis" unicode="&#xeb;" horiz-adv-x="1124" 
d="M90 498q0 149 57 272t170 198.5t263 75.5q109 0 193.5 -40.5t136 -111t78 -159.5t26.5 -192v-80h-793q12 -171 115.5 -265t292.5 -94q175 0 344 91v-130q-157 -83 -342 -83q-257 0 -399 142t-142 376zM221 569h662v9q0 93 -31 170t-102 128.5t-172 51.5
q-147 0 -243 -100.5t-114 -258.5zM756 1307q-43 0 -75 31t-32 73q0 43 32 75t75 32t74.5 -32t31.5 -75t-31.5 -73.5t-74.5 -30.5zM283 1411q0 42 32 74.5t74 32.5q41 0 73 -33t32 -74q0 -42 -31.5 -73t-73.5 -31q-43 0 -74.5 30.5t-31.5 73.5z" />
    <glyph glyph-name="igrave" unicode="&#xec;" horiz-adv-x="516" 
d="M322 0h-129v1024h129v-1024zM203 1221l-240 313v16h141l215 -315v-14h-116z" />
    <glyph glyph-name="iacute" unicode="&#xed;" horiz-adv-x="516" 
d="M322 0h-129v1024h129v-1024zM543 1522l-230 -301h-118v14l215 315h133v-28z" />
    <glyph glyph-name="icircumflex" unicode="&#xee;" horiz-adv-x="516" 
d="M193 1024h131v-1024h-131v1024zM-25 1192v14l222 344h122l222 -344v-14h-123l-158 242h-4l-158 -242h-123z" />
    <glyph glyph-name="idieresis" unicode="&#xef;" horiz-adv-x="516" 
d="M322 0h-127v1024h127v-1024zM305 1411q0 43 31 75t74 32t74.5 -32t31.5 -75t-31.5 -73.5t-74.5 -30.5t-74 30.5t-31 73.5zM0 1411q0 42 32 74.5t74 32.5q41 0 74 -33t33 -74q0 -42 -32.5 -73t-74.5 -31q-43 0 -74.5 30.5t-31.5 73.5z" />
    <glyph glyph-name="eth" unicode="&#xf0;" horiz-adv-x="1161" 
d="M84 506q0 141 59 261t167 192.5t241 72.5q111 0 207 -57l-195 280l-313 -73l-33 84l287 77l-146 209v13h148l125 -187l231 62l41 -105l-209 -49l170 -254q3 -4 32 -48.5t33 -51t28.5 -46.5t29.5 -51t23.5 -47t23.5 -53.5t17 -51t15 -58t7 -56t4 -63.5q0 -141 -60 -260.5
t-174.5 -192.5t-260.5 -73q-111 0 -205.5 42.5t-158 115t-99 168t-35.5 200.5zM582 915q-110 0 -195.5 -58.5t-128.5 -151t-43 -199.5q0 -166 101 -285t266 -119q110 0 194.5 57.5t127 148.5t42.5 198q0 79 -25.5 152.5t-71 131t-115 91.5t-152.5 34z" />
    <glyph glyph-name="ntilde" unicode="&#xf1;" 
d="M193 0v1024h131l-2 -168q65 77 179.5 132.5t237.5 55.5q152 0 230 -100t78 -317v-627h-132v604q0 167 -55 242.5t-164 75.5q-104 0 -208 -57.5t-166 -135.5l2 -729h-131zM307 1262q-27 129 9.5 196.5t121.5 67.5q71 0 156 -62l102 -80q33 -26 68 -26q36 0 47 30t-4 121
h104q25 -129 -11.5 -195.5t-121.5 -66.5q-68 0 -153 62l-103 80q-36 26 -67 26q-37 0 -48 -30.5t5 -122.5h-105z" />
    <glyph glyph-name="ograve" unicode="&#xf2;" horiz-adv-x="1161" 
d="M84 512q0 105 35.5 201.5t99 170t158 117t205.5 43.5q146 0 260.5 -74.5t174.5 -195.5t60 -262t-60 -262t-174.5 -195.5t-260.5 -74.5q-111 0 -205.5 43.5t-158 117t-99 170t-35.5 201.5zM215 512q0 -106 44 -198.5t129.5 -152t193.5 -59.5t193 59.5t128 152t43 198.5
t-43 198.5t-128 152t-193 59.5t-193.5 -59.5t-129.5 -152t-44 -198.5zM573 1221l-241 313v16h143l215 -315v-14h-117z" />
    <glyph glyph-name="oacute" unicode="&#xf3;" horiz-adv-x="1161" 
d="M84 512q0 105 35.5 201.5t99 170t158 117t205.5 43.5q146 0 260.5 -74.5t174.5 -195.5t60 -262t-60 -262t-174.5 -195.5t-260.5 -74.5q-111 0 -205.5 43.5t-158 117t-99 170t-35.5 201.5zM215 512q0 -106 44 -198.5t129.5 -152t193.5 -59.5t193 59.5t128 152t43 198.5
t-43 198.5t-128 152t-193 59.5t-193.5 -59.5t-129.5 -152t-44 -198.5zM829 1534l-239 -313h-119v14l215 315h143v-16z" />
    <glyph glyph-name="ocircumflex" unicode="&#xf4;" horiz-adv-x="1161" 
d="M84 512q0 105 35.5 201.5t99 170t158 117t205.5 43.5q146 0 260.5 -74.5t174.5 -195.5t60 -262t-60 -262t-174.5 -195.5t-260.5 -74.5q-111 0 -205.5 43.5t-158 117t-99 170t-35.5 201.5zM215 512q0 -106 44 -198.5t129.5 -152t193.5 -59.5t193 59.5t128 152t43 198.5
t-43 198.5t-128 152t-193 59.5t-193.5 -59.5t-129.5 -152t-44 -198.5zM299 1206l221 344h121l221 -344v-14h-123l-157 242h-2l-158 -242h-123v14z" />
    <glyph glyph-name="otilde" unicode="&#xf5;" horiz-adv-x="1161" 
d="M84 512q0 105 35.5 201.5t99 170t158 117t205.5 43.5q146 0 260.5 -74.5t174.5 -195.5t60 -262t-60 -262t-174.5 -195.5t-260.5 -74.5q-111 0 -205.5 43.5t-158 117t-99 170t-35.5 201.5zM215 512q0 -107 43 -199.5t128.5 -151.5t195.5 -59q109 0 194 59t127.5 151.5
t42.5 199.5t-42.5 199.5t-127.5 151.5t-194 59q-110 0 -195.5 -59t-128.5 -151.5t-43 -199.5zM565 1464l103 -80q33 -26 67 -26q35 0 46 30t-3 121h105q25 -129 -11.5 -195.5t-121.5 -66.5q-69 0 -154 62l-102 80q-36 26 -68 26q-37 0 -48 -30.5t5 -122.5h-107
q-25 129 12 196.5t122 67.5q70 0 155 -62z" />
    <glyph glyph-name="odieresis" unicode="&#xf6;" horiz-adv-x="1161" 
d="M84 512q0 105 35.5 201.5t99 170t158 117t205.5 43.5q146 0 260.5 -74.5t174.5 -195.5t60 -262t-60 -262t-174.5 -195.5t-260.5 -74.5q-111 0 -205.5 43.5t-158 117t-99 170t-35.5 201.5zM215 512q0 -107 43 -199.5t128.5 -151.5t195.5 -59q109 0 194 59t127.5 151.5
t42.5 199.5t-42.5 199.5t-127.5 151.5t-194 59q-110 0 -195.5 -59t-128.5 -151.5t-43 -199.5zM659 1411q0 43 32 75t75 32t74.5 -32t31.5 -75t-31.5 -73.5t-74.5 -30.5t-75 31t-32 73zM293 1411q0 42 31.5 74.5t74.5 32.5q41 0 73 -33t32 -74q0 -42 -31.5 -73t-73.5 -31
q-44 0 -75 30.5t-31 73.5z" />
    <glyph glyph-name="divide" unicode="&#xf7;" horiz-adv-x="1028" 
d="M963 594h-897v123h897v-123zM412 1053q0 42 30 72t72 30q41 0 71.5 -30.5t30.5 -71.5q0 -43 -30 -73t-72 -30q-43 0 -72.5 30t-29.5 73zM412 258q0 42 30 72t72 30q41 0 71.5 -30.5t30.5 -71.5q0 -42 -30 -72t-72 -30q-43 0 -72.5 29.5t-29.5 72.5z" />
    <glyph glyph-name="oslash" unicode="&#xf8;" horiz-adv-x="1161" 
d="M207 156q-123 148 -123 356q0 105 35.5 201.5t99 170t158 117t205.5 43.5q180 0 309 -110l90 100l70 -59l-95 -109q121 -149 121 -354q0 -141 -60 -262t-174.5 -195.5t-260.5 -74.5q-180 0 -310 108l-92 -104l-71 61zM293 254l516 584q-97 84 -227 84q-110 0 -195.5 -59
t-128.5 -151.5t-43 -199.5q0 -148 78 -258zM870 768l-514 -584q95 -82 226 -82q109 0 194 59t127.5 151.5t42.5 199.5q0 144 -76 256z" />
    <glyph glyph-name="ugrave" unicode="&#xf9;" horiz-adv-x="1212" 
d="M166 397v627h131v-602q0 -168 54.5 -244t164.5 -76q104 0 207.5 57.5t165.5 135.5v729h129v-1024h-129v168q-63 -76 -178.5 -132t-237.5 -56q-152 0 -229.5 100t-77.5 317zM338 1550h143l213 -315v-14h-116l-240 313v16z" />
    <glyph glyph-name="uacute" unicode="&#xfa;" horiz-adv-x="1212" 
d="M473 -20q-152 0 -229.5 100t-77.5 317v627h131v-602q0 -168 54.5 -244t164.5 -76q104 0 207.5 57.5t165.5 135.5v729h129v-1024h-129v168q-63 -76 -178.5 -132t-237.5 -56zM506 1235l215 315h141v-16l-239 -313h-117v14z" />
    <glyph glyph-name="ucircumflex" unicode="&#xfb;" horiz-adv-x="1212" 
d="M166 1024h131v-602q0 -168 54.5 -244t164.5 -76q104 0 207.5 57.5t165.5 135.5v729h129v-1024h-129v168q-63 -76 -178.5 -132t-237.5 -56q-152 0 -229.5 100t-77.5 317v627zM309 1192v14l221 344h123l221 -344v-14h-122l-158 242h-4l-158 -242h-123z" />
    <glyph glyph-name="udieresis" unicode="&#xfc;" horiz-adv-x="1212" 
d="M166 397v627h131v-602q0 -168 54.5 -244t164.5 -76q104 0 207.5 57.5t165.5 135.5v729h129v-1024h-129v168q-63 -76 -178.5 -132t-237.5 -56q-152 0 -229.5 100t-77.5 317zM668 1411q0 43 31.5 75t74.5 32t75 -32t32 -75q0 -42 -32 -73t-75 -31t-74.5 30.5t-31.5 73.5z
M408 1307q-44 0 -75.5 30.5t-31.5 73.5q0 42 31.5 74.5t75.5 32.5q41 0 72.5 -32.5t31.5 -74.5t-31 -73t-73 -31z" />
    <glyph glyph-name="yacute" unicode="&#xfd;" horiz-adv-x="1026" 
d="M37 1012v12h137l338 -848h2l338 848h135v-12l-502 -1245q-27 -68 -52.5 -113.5t-61.5 -85.5t-85 -59t-112 -19q-29 0 -43 2l-49 127q25 -6 76 -6q45 0 77.5 13.5t57.5 46.5t40 63t38 88l71 180zM424 1235l213 315h143v-16l-239 -313h-117v14z" />
    <glyph glyph-name="thorn" unicode="&#xfe;" 
d="M193 -500v2065h129v-672q164 151 340 151q106 0 195.5 -43.5t148.5 -117t91.5 -169.5t32.5 -202q0 -142 -55.5 -262t-165 -195t-252.5 -75q-114 0 -200 37.5t-135 84.5v-602h-129zM322 780v-549q140 -129 313 -129q112 0 196 57.5t126 150t42 202.5t-42 202.5t-127 150
t-197 57.5q-163 0 -311 -142z" />
    <glyph glyph-name="ydieresis" unicode="&#xff;" horiz-adv-x="1026" 
d="M442 4l-405 1008v12h137l338 -848h2l338 848h135v-12l-502 -1245q-27 -68 -52.5 -113.5t-61.5 -85.5t-85 -59t-112 -19q-29 0 -43 2l-49 127q25 -6 76 -6q45 0 77.5 13.5t57.5 46.5t40 63t38 88zM590 1411q0 43 31 75t75 32q41 0 73 -32t32 -75q0 -42 -31.5 -73
t-73.5 -31q-44 0 -75 30.5t-31 73.5zM328 1307q-43 0 -74 30.5t-31 73.5q0 42 31.5 74.5t73.5 32.5t74 -32.5t32 -74.5q0 -43 -31.5 -73.5t-74.5 -30.5z" />
    <glyph glyph-name="Amacron" unicode="&#x100;" horiz-adv-x="1363" 
d="M35 12l581 1422h132l583 -1422v-12h-135l-149 365h-730l-149 -365h-133v12zM682 1262l-317 -773h632l-313 773h-2zM934 1636h-512v121h512v-121z" />
    <glyph glyph-name="amacron" unicode="&#x101;" horiz-adv-x="1085" 
d="M193 842l-9 129q171 73 338 73q197 0 296.5 -98.5t99.5 -318.5v-627h-132l2 125q-171 -145 -376 -145q-148 0 -235 74.5t-87 211.5q0 86 36 150.5t99.5 102t141.5 55.5t170 18q116 0 251 -27l-2 53q1 167 -67.5 235.5t-204.5 68.5q-177 0 -321 -80zM788 236v225
q-117 24 -237 24q-148 0 -239 -53t-91 -158q0 -90 60.5 -134t158.5 -44q180 0 348 140zM274 1300v121h512v-121h-512z" />
    <glyph glyph-name="Abreve" unicode="&#x102;" horiz-adv-x="1363" 
d="M168 0h-133v12l581 1422h134l581 -1422v-12h-135l-149 365h-728zM682 1262l-317 -773h632l-313 773h-2zM408 1841h112q12 -83 54.5 -128.5t109.5 -45.5q66 0 108.5 46t53.5 128h112q-22 -135 -93 -208.5t-181 -73.5q-112 0 -183 73t-93 209z" />
    <glyph glyph-name="abreve" unicode="&#x103;" horiz-adv-x="1085" 
d="M412 -20q-148 0 -235 74.5t-87 211.5q0 86 36 150.5t99.5 102t141.5 55.5t170 18q116 0 251 -27l-2 53q1 87 -16.5 147t-54 94t-85 48.5t-116.5 14.5q-175 0 -321 -78l-9 127q171 73 338 73q197 0 296.5 -98t99.5 -319v-627h-132l2 125q-171 -145 -376 -145zM221 274
q0 -91 60 -134.5t159 -43.5q180 0 348 140v225q-117 24 -237 24q-150 0 -240 -52t-90 -159zM535 1227q-112 0 -182.5 72.5t-92.5 209.5h111q12 -83 54.5 -128.5t109.5 -45.5t109 45.5t54 128.5h111q-22 -136 -93 -209t-181 -73z" />
    <glyph glyph-name="Aogonek" unicode="&#x104;" horiz-adv-x="1363" 
d="M35 0v12l581 1422h132l581 -1422v-12q-242 -158 -242 -301q0 -47 28.5 -74.5t88.5 -27.5q49 0 129 22l-12 -104q-71 -21 -131 -21q-98 0 -155.5 52t-57.5 141q0 86 58 166.5t151 146.5q4 4 8 6l-147 359h-730l-149 -365h-133zM365 489h632l-313 773h-2z" />
    <glyph glyph-name="aogonek" unicode="&#x105;" horiz-adv-x="1085" 
d="M412 -20q-148 0 -235 74.5t-87 211.5q0 86 36 150.5t99.5 102t141.5 55.5t170 18q116 0 251 -27l-2 53q1 167 -67.5 235.5t-204.5 68.5q-177 0 -321 -80l-9 129q171 73 338 73q197 0 296.5 -98t99.5 -319v-627q-240 -158 -240 -301q0 -47 28.5 -74.5t88.5 -27.5
q57 0 127 22l-13 -106q-71 -21 -129 -21q-98 0 -155.5 52t-57.5 143q0 167 219 323l2 115q-171 -145 -376 -145zM551 485q-148 0 -239 -53t-91 -158q0 -91 60.5 -134.5t158.5 -43.5q180 0 348 140v225q-117 24 -237 24z" />
    <glyph glyph-name="Cacute" unicode="&#x106;" horiz-adv-x="1343" 
d="M1221 229l2 -149q-179 -100 -406 -100q-161 0 -298 58t-229.5 157.5t-144 234.5t-51.5 287t51.5 287t144 234.5t229.5 157.5t298 58q229 0 408 -108l-21 -136q-162 119 -370 119q-139 0 -254.5 -50t-191.5 -134.5t-117.5 -195t-41.5 -232.5t41.5 -232.5t117.5 -195.5
t191.5 -135t254.5 -50q208 0 387 125zM1024 1874l-240 -313h-116v14l215 315h141v-16z" />
    <glyph glyph-name="cacute" unicode="&#x107;" horiz-adv-x="999" 
d="M911 950l-14 -123q-138 95 -283 95q-183 0 -289 -116.5t-106 -293.5t106 -293.5t289 -116.5q151 0 295 101v-133q-139 -90 -311 -90q-226 0 -368 150t-142 382t142 382t370 150q172 0 311 -94zM852 1524l-231 -303h-117v14l213 315h135v-26z" />
    <glyph glyph-name="Ccircumflex" unicode="&#x108;" horiz-adv-x="1343" 
d="M817 -20q-161 0 -298 58t-229.5 157.5t-144 234.5t-51.5 287t51.5 287t144 234.5t229.5 157.5t298 58q227 0 406 -108l-21 -136q-158 119 -371 119q-139 0 -254.5 -50t-191 -134.5t-117 -195t-41.5 -232.5t41.5 -232.5t117 -195.5t191 -135t254.5 -50q209 0 388 125
l2 -149q-174 -100 -404 -100zM502 1548v17l211 325h143l211 -325v-17h-123l-158 242h-4l-157 -242h-123z" />
    <glyph glyph-name="ccircumflex" unicode="&#x109;" horiz-adv-x="1001" 
d="M596 -20q-226 0 -368 150t-142 382t142 382t370 150q175 0 311 -94l-14 -123q-138 95 -283 95q-183 0 -289 -116.5t-106 -293.5t106 -293.5t289 -116.5q151 0 295 101v-133q-139 -90 -311 -90zM416 1192h-123v14l221 344h121l221 -344v-14h-123l-158 242h-2z" />
    <glyph glyph-name="Cdotaccent" unicode="&#x10a;" horiz-adv-x="1343" 
d="M1221 229l2 -149q-170 -100 -406 -100q-161 0 -298 58t-229.5 157.5t-144 234.5t-51.5 287t51.5 287t144 234.5t229.5 157.5t298 58q222 0 408 -100l-21 -142q-159 117 -370 117q-140 0 -255.5 -50t-191 -134.5t-117 -195t-41.5 -232.5t41.5 -232.5t117 -195.5
t191.5 -135t255 -50q213 0 387 125zM713 1720q0 42 29.5 73.5t70.5 31.5t71.5 -31.5t30.5 -73.5t-30 -71t-72 -29t-71 29t-29 71z" />
    <glyph glyph-name="cdotaccent" unicode="&#x10b;" horiz-adv-x="1001" 
d="M909 952l-14 -125q-138 95 -289 95q-119 0 -208.5 -56t-135 -148.5t-45.5 -205.5q0 -172 109 -291t280 -119q161 0 301 103v-135q-60 -43 -142 -66.5t-169 -23.5q-221 0 -365.5 151t-144.5 381q0 232 141.5 382t368.5 150q180 0 313 -92zM475 1413q0 42 31.5 73.5
t75.5 31.5q42 0 73 -31.5t31 -73.5q0 -44 -30.5 -75t-73.5 -31q-44 0 -75.5 31t-31.5 75z" />
    <glyph glyph-name="Ccaron" unicode="&#x10c;" horiz-adv-x="1343" 
d="M817 -20q-161 0 -298 58t-229.5 157.5t-144 234.5t-51.5 287t51.5 287t144 234.5t229.5 157.5t298 58q229 0 408 -108l-21 -136q-162 119 -370 119q-140 0 -255.5 -50t-191 -134.5t-117 -195t-41.5 -232.5t41.5 -232.5t117 -195.5t191.5 -135t255 -50q208 0 387 125
l2 -149q-179 -100 -406 -100zM717 1548l-211 316v14h123l157 -231h2l158 231h123v-14l-211 -316h-141z" />
    <glyph glyph-name="ccaron" unicode="&#x10d;" horiz-adv-x="1001" 
d="M596 -20q-225 0 -367.5 150.5t-142.5 381.5q0 232 142 382t370 150q175 0 311 -94l-14 -123q-138 95 -283 95q-183 0 -289 -116.5t-106 -293.5t106 -293.5t289 -116.5q151 0 295 101v-133q-139 -90 -311 -90zM291 1536v14h123l157 -241h2l158 241h123v-14l-221 -344h-121
z" />
    <glyph glyph-name="Dcaron" unicode="&#x10e;" horiz-adv-x="1499" 
d="M707 0h-504v1434h504q152 0 283.5 -58t221.5 -155.5t141.5 -228.5t51.5 -275t-51.5 -275t-141.5 -228.5t-221.5 -155.5t-283.5 -58zM336 123h369q126 1 234 51.5t180 134t112.5 190t40.5 218.5q0 90 -25.5 176.5t-75 162t-117 132.5t-158 90t-191.5 33h-369v-1188z
M641 1548l-211 316v14h123l158 -231h2l157 231h123v-14l-211 -316h-141z" />
    <glyph glyph-name="dcaron" unicode="&#x10f;" horiz-adv-x="1284" 
d="M555 -20q-141 0 -249.5 75t-164 195t-55.5 262q0 106 33 202t92.5 169.5t150.5 117t199 43.5q112 0 198 -37t136 -83v641h131v-1565h-131v131q-164 -151 -340 -151zM217 512q0 -110 42.5 -202.5t128.5 -150t200 -57.5q157 0 307 138v557q-51 49 -128.5 87t-178.5 38
q-114 0 -200 -57.5t-128.5 -150t-42.5 -202.5zM1147 1110l88 455h111v-13l-97 -442h-102z" />
    <glyph glyph-name="Dcroat" unicode="&#x110;" horiz-adv-x="1499" 
d="M49 672v110h154v652h504q201 0 362 -98.5t248.5 -262t87.5 -356.5t-87.5 -356.5t-248.5 -262t-362 -98.5h-504v672h-154zM705 1311h-371v-529h373v-108h-373v-551h371q100 0 190.5 33t157.5 90t116.5 132.5t75 162t25.5 176.5t-25.5 176.5t-75 162t-116.5 132.5
t-157.5 90t-190.5 33z" />
    <glyph glyph-name="dcroat" unicode="&#x111;" 
d="M555 -20q-141 0 -249.5 75t-164 195t-55.5 262t55.5 262t165 195t252.5 75q114 0 200 -37t136 -83v295h-266v94h266v252h131v-252h186v-94h-186v-1219h-131v131q-164 -151 -340 -151zM584 922q-85 0 -155.5 -33.5t-116 -90t-70.5 -130.5t-25 -156q0 -110 42 -202
t127.5 -150t199.5 -58q159 0 309 138v557q-130 125 -311 125z" />
    <glyph glyph-name="Emacron" unicode="&#x112;" horiz-adv-x="1257" 
d="M203 0v1434h901v-123h-768v-525h729v-124h-729v-539h780l-10 -123h-903zM397 1757h514v-121h-514v121z" />
    <glyph glyph-name="emacron" unicode="&#x113;" horiz-adv-x="1124" 
d="M90 498q0 149 57 272t169.5 198.5t261.5 75.5q109 0 194.5 -41.5t137 -112.5t78 -159.5t26.5 -189.5v-80h-793q12 -171 115.5 -265t292.5 -94q175 0 344 91v-130q-157 -83 -342 -83q-257 0 -399 142t-142 376zM221 569h662v9q0 93 -31 170t-102 128.5t-172 51.5
q-147 0 -243 -100.5t-114 -258.5zM823 1300h-514v121h514v-121z" />
    <glyph glyph-name="Ebreve" unicode="&#x114;" horiz-adv-x="1257" 
d="M205 1434h899v-123h-768v-525h729v-124h-729v-539h780l-10 -123h-901v1434zM387 1841h113q11 -82 53 -128t109 -46t109 45.5t54 128.5h113q-22 -136 -93 -209t-183 -73q-110 0 -181.5 73.5t-93.5 208.5z" />
    <glyph glyph-name="ebreve" unicode="&#x115;" horiz-adv-x="1124" 
d="M631 -20q-257 0 -399 142t-142 376q0 149 57 272t170 198.5t263 75.5q109 0 193.5 -40.5t136 -111t78 -159.5t26.5 -192v-80h-793q12 -171 115.5 -265t292.5 -94q175 0 344 91v-130q-157 -83 -342 -83zM221 569h662v9q0 93 -31 170t-102 128.5t-172 51.5
q-147 0 -243 -100.5t-114 -258.5zM291 1509h112q11 -82 53 -128t109 -46t109.5 45.5t54.5 128.5h113q-22 -137 -93.5 -209.5t-183.5 -72.5q-110 0 -181 73t-93 209z" />
    <glyph glyph-name="Edotaccent" unicode="&#x116;" horiz-adv-x="1257" 
d="M1106 0h-903v1434h901v-123h-768v-525h729v-124h-729v-539h780zM662 1620q-43 0 -73 29t-30 71t30.5 73.5t72.5 31.5q40 0 70 -32t30 -73q0 -42 -30 -71t-70 -29z" />
    <glyph glyph-name="edotaccent" unicode="&#x117;" horiz-adv-x="1124" 
d="M631 -20q-257 0 -399 142t-142 376q0 149 57 272t169.5 198.5t261.5 75.5q109 0 194.5 -41.5t137 -112.5t78 -159.5t26.5 -189.5v-80h-793q12 -171 115.5 -265t292.5 -94q175 0 344 91v-130q-157 -83 -342 -83zM221 569h662v9q0 93 -31 170t-102 128.5t-172 51.5
q-147 0 -243 -100.5t-114 -258.5zM461 1413q0 42 31 73.5t75 31.5q42 0 73.5 -31.5t31.5 -73.5q0 -44 -31 -75t-74 -31q-44 0 -75 31t-31 75z" />
    <glyph glyph-name="Eogonek" unicode="&#x118;" horiz-adv-x="1257" 
d="M965 0h-760v1434h899v-123h-768v-525h729v-124h-729v-539h780l-8 -123q-112 -72 -176 -149.5t-64 -151.5q0 -47 28.5 -74.5t88.5 -27.5q47 0 127 22l-12 -104q-70 -21 -131 -21q-98 0 -154.5 52t-56.5 141q0 86 57.5 166.5t149.5 146.5z" />
    <glyph glyph-name="eogonek" unicode="&#x119;" horiz-adv-x="1124" 
d="M631 -20q-257 0 -399 142t-142 376q0 149 57 272t170 198.5t263 75.5q109 0 193.5 -40.5t136 -111t78 -159.5t26.5 -192v-80h-793q12 -171 115 -265t291 -94q177 0 346 91v-127q-165 -125 -237 -209t-72 -158q0 -102 116 -102q49 0 129 22l-14 -104q-70 -21 -131 -21
q-98 0 -154.5 52t-56.5 141q0 154 188 301q-47 -8 -110 -8zM221 569h662v9q0 93 -31 170t-102 128.5t-172 51.5q-147 0 -243 -100.5t-114 -258.5z" />
    <glyph glyph-name="Ecaron" unicode="&#x11a;" horiz-adv-x="1257" 
d="M203 0v1434h901v-123h-768v-525h729v-124h-729v-539h780l-10 -123h-903zM391 1878h123l158 -231h2l157 231h123v-14l-211 -316h-141l-211 316v14z" />
    <glyph glyph-name="ecaron" unicode="&#x11b;" horiz-adv-x="1124" 
d="M90 498q0 149 57 272t170 198.5t263 75.5q109 0 193.5 -40.5t136 -111t78 -159.5t26.5 -192v-80h-793q12 -171 115.5 -265t292.5 -94q175 0 344 91v-130q-157 -83 -342 -83q-257 0 -399 142t-142 376zM221 569h662v9q0 93 -31 170t-102 128.5t-172 51.5
q-147 0 -243 -100.5t-114 -258.5zM285 1550h123l157 -241h2l158 241h123v-14l-221 -344h-121l-221 344v14z" />
    <glyph glyph-name="Gcircumflex" unicode="&#x11c;" horiz-adv-x="1429" 
d="M819 -20q-156 0 -293 61t-231 162.5t-148.5 235.5t-54.5 278t54.5 278t150 235.5t235 162.5t299.5 61q251 0 441 -108l-17 -142q-192 125 -421 125q-134 0 -250.5 -53.5t-193 -140.5t-120 -196t-43.5 -222q0 -114 44 -224.5t121 -196.5t191 -139t244 -53q179 0 324 60
v454h-395v125h528v-671q-129 -52 -234.5 -72t-230.5 -20zM502 1565l211 325h141l211 -325v-17h-123l-158 242h-2l-157 -242h-123v17z" />
    <glyph glyph-name="gcircumflex" unicode="&#x11d;" horiz-adv-x="1220" 
d="M86 512q0 142 55.5 262t163.5 195t248 75q180 0 344 -151v131h129v-993q0 -254 -123.5 -397.5t-367.5 -143.5q-223 0 -375 90l-13 131q170 -98 367 -98t290 107t93 300v82q-52 -48 -137 -85t-199 -37q-108 0 -199 43.5t-150.5 117t-92.5 169.5t-33 202zM584 922
q-85 0 -155.5 -33.5t-116 -90t-70.5 -130.5t-25 -156q0 -110 42 -202t127.5 -150t199.5 -58q180 0 311 121v557q-148 142 -313 142zM311 1206l221 344h121l221 -344v-14h-122l-158 242h-2l-158 -242h-123v14z" />
    <glyph glyph-name="Gbreve" unicode="&#x11e;" horiz-adv-x="1429" 
d="M817 -20q-156 0 -292.5 61t-230.5 162.5t-148 235.5t-54 278t54.5 278t149.5 235.5t234.5 162.5t300.5 61q247 0 441 -108l-17 -142q-192 125 -421 125q-134 0 -250.5 -53.5t-193.5 -140.5t-121 -196t-44 -222q0 -114 44.5 -224.5t121.5 -196.5t191.5 -139t244.5 -53
q179 0 324 60v454h-395v125h526v-671q-127 -52 -232.5 -72t-232.5 -20zM811 1559q-110 0 -181 73.5t-93 208.5h110q12 -83 54.5 -128.5t109.5 -45.5t109.5 45.5t54.5 128.5h110q-22 -136 -92 -209t-182 -73z" />
    <glyph glyph-name="gbreve" unicode="&#x11f;" horiz-adv-x="1220" 
d="M86 512q0 142 55.5 262t163.5 195t248 75q180 0 344 -151v131h129v-993q0 -254 -123.5 -397.5t-367.5 -143.5q-222 0 -377 90l-11 131q167 -98 365 -98q195 0 290 108.5t95 298.5v82q-52 -48 -137.5 -85t-198.5 -37q-108 0 -199 43.5t-150.5 117t-92.5 169.5t-33 202z
M584 922q-85 0 -155.5 -33.5t-116 -90t-70.5 -130.5t-25 -156q0 -110 42 -202t127.5 -150t199.5 -58q180 0 311 121v557q-28 25 -50.5 43t-64.5 44t-92.5 40.5t-105.5 14.5zM588 1227q-111 0 -182 73t-93 209h111q12 -83 54.5 -128.5t109.5 -45.5t109.5 45.5t54.5 128.5h110
q-22 -136 -93 -209t-181 -73z" />
    <glyph glyph-name="Gdotaccent" unicode="&#x120;" horiz-adv-x="1429" 
d="M1272 1346l-17 -142q-192 125 -421 125q-134 0 -250.5 -53.5t-193.5 -140.5t-121 -196t-44 -222q0 -114 44.5 -224.5t121.5 -196.5t191.5 -139t244.5 -53q179 0 324 60v454h-395v125h526v-671q-127 -52 -232.5 -72t-232.5 -20q-156 0 -292.5 61t-230.5 162.5t-148 235.5
t-54 278t54.5 278t149.5 235.5t234.5 162.5t300.5 61q247 0 441 -108zM694 1720q0 42 30 73.5t71 31.5t71.5 -31.5t30.5 -73.5t-30 -71t-72 -29t-71.5 29t-29.5 71z" />
    <glyph glyph-name="gdotaccent" unicode="&#x121;" horiz-adv-x="1220" 
d="M561 -20q-108 0 -199 43.5t-150.5 117t-92.5 169.5t-33 202q0 142 55.5 262t163.5 195t248 75q180 0 344 -151v131h129v-993q0 -254 -123.5 -397.5t-367.5 -143.5q-222 0 -377 90l-11 131q167 -98 365 -98q195 0 290 108.5t95 298.5v82q-52 -48 -137.5 -85t-198.5 -37z
M217 512q0 -110 42 -202t127.5 -150t199.5 -58q180 0 311 121v557q-28 25 -50.5 43t-64.5 44t-92.5 40.5t-105.5 14.5q-85 0 -155.5 -33.5t-116 -90t-70.5 -130.5t-25 -156zM475 1413q0 42 30.5 73.5t74.5 31.5q42 0 73 -31.5t31 -73.5q0 -44 -30.5 -75t-73.5 -31
q-44 0 -74.5 31t-30.5 75z" />
    <glyph glyph-name="uni0122" unicode="&#x122;" horiz-adv-x="1429" 
d="M1272 1346l-17 -142q-192 125 -421 125q-134 0 -250.5 -53.5t-193 -140.5t-120 -196t-43.5 -222q0 -114 44 -224.5t121 -196.5t191 -139t244 -53q179 0 324 60v454h-395v125h526v-671q-127 -52 -232.5 -72t-232.5 -20q-156 0 -292.5 61t-230.5 162.5t-148 235.5t-54 278
t54.5 278t150 235.5t235 162.5t299.5 61q251 0 441 -108zM705 -508l81 348h127v-14l-90 -334h-118z" />
    <glyph glyph-name="uni0123" unicode="&#x123;" 
d="M86 512q0 142 55.5 262t163.5 195t248 75q180 0 344 -151v131h129v-993q0 -254 -123.5 -397.5t-367.5 -143.5q-222 0 -377 90l-11 131q167 -98 365 -98q195 0 290 108.5t95 298.5v82q-52 -48 -137.5 -85t-198.5 -37q-108 0 -199 43.5t-150.5 117t-92.5 169.5t-33 202z
M217 512q0 -110 42 -202t127.5 -150t199.5 -58q180 0 311 121v557q-28 25 -50.5 43t-64.5 44t-92.5 40.5t-105.5 14.5q-85 0 -155.5 -33.5t-116 -90t-70.5 -130.5t-25 -156zM518 1235l88 334h121l-84 -346h-125v12z" />
    <glyph glyph-name="Hcircumflex" unicode="&#x124;" horiz-adv-x="1519" 
d="M336 0h-133v1434h133v-646h848v646h133v-1434h-133v666h-848v-666zM477 1565l211 325h141l211 -325v-17h-122l-158 242h-2l-158 -242h-123v17z" />
    <glyph glyph-name="hcircumflex" unicode="&#x125;" horiz-adv-x="1216" 
d="M324 0h-131v1565h129v-703q65 73 181 127.5t236 54.5q152 0 228.5 -99.5t76.5 -317.5v-627h-129v600q0 169 -51.5 245.5t-161.5 76.5q-103 0 -209 -55.5t-169 -131.5v-735zM98 1591h-123v15l211 315h142l213 -315v-15h-125l-156 232h-4z" />
    <glyph glyph-name="Hbar" unicode="&#x126;" horiz-adv-x="1519" 
d="M61 1051v108h142v275h131v-275h850v275h131v-275h141v-108h-141v-1051h-131v666h-850v-666h-131v1051h-142zM1184 1051h-850v-263h850v263z" />
    <glyph glyph-name="hbar" unicode="&#x127;" 
d="M14 1219v94h181v252h129v-252h274v-94h-274v-357q65 73 181 127.5t236 54.5q151 0 228.5 -100t77.5 -317v-627h-132v600q0 167 -52.5 244.5t-162.5 77.5q-102 0 -206.5 -55.5t-169.5 -131.5v-735h-129v1219h-181z" />
    <glyph glyph-name="Itilde" unicode="&#x128;" horiz-adv-x="538" 
d="M336 0h-133v1434h133v-1434zM256 1767l111 -77q39 -27 71 -27q71 0 39 152h107q25 -128 -13.5 -195.5t-126.5 -67.5q-73 0 -161 64l-111 76q-40 28 -72 28q-71 0 -39 -151h-106q-26 128 13 194t128 66q75 0 160 -62z" />
    <glyph glyph-name="itilde" unicode="&#x129;" horiz-adv-x="516" 
d="M322 0h-129v1024h129v-1024zM291 1421l37 -24q34 -27 65 -27q75 0 43 152h105q25 -128 -13.5 -195t-124.5 -67q-44 0 -80.5 16t-82.5 47l-37 27q-35 24 -64 24q-37 0 -48 -30t3 -121h-104q-26 128 12.5 195t126.5 67q43 0 79.5 -16t82.5 -48z" />
    <glyph glyph-name="Imacron" unicode="&#x12a;" horiz-adv-x="538" 
d="M336 0h-131v1434h131v-1434zM14 1636v121h512v-121h-512z" />
    <glyph glyph-name="imacron" unicode="&#x12b;" horiz-adv-x="516" 
d="M322 0h-129v1024h129v-1024zM8 1298v123h502v-123h-502z" />
    <glyph glyph-name="Ibreve" unicode="&#x12c;" horiz-adv-x="538" 
d="M205 1434h131v-1434h-131v1434zM-6 1841h112q12 -83 54.5 -128.5t109.5 -45.5t109.5 45.5t54.5 128.5h111q-22 -135 -93.5 -208.5t-181.5 -73.5q-112 0 -182.5 73t-93.5 209z" />
    <glyph glyph-name="ibreve" unicode="&#x12d;" horiz-adv-x="516" 
d="M193 1024h129v-1024h-129v1024zM-16 1509h112q11 -82 53.5 -128t108.5 -46q67 0 109.5 45.5t54.5 128.5h113q-22 -137 -93.5 -209.5t-183.5 -72.5q-110 0 -181 73t-93 209z" />
    <glyph glyph-name="Iogonek" unicode="&#x12e;" horiz-adv-x="538" 
d="M326 -485q-70 -21 -131 -21q-97 0 -154 52t-57 141q0 165 219 321v1426h131v-1434q-240 -157 -240 -301q0 -47 28.5 -74.5t88.5 -27.5q49 0 129 22z" />
    <glyph glyph-name="iogonek" unicode="&#x12f;" horiz-adv-x="516" 
d="M315 -485q-70 -21 -131 -21q-98 0 -155.5 52t-57.5 141q0 167 222 321v1016h131v-1024h-2q-111 -72 -174.5 -149.5t-63.5 -151.5q0 -47 28.5 -74.5t88.5 -27.5q47 0 127 22zM258 1307q-44 0 -75 31t-31 75q0 42 31 73.5t75 31.5q42 0 73 -31.5t31 -73.5q0 -44 -30.5 -75
t-73.5 -31z" />
    <glyph glyph-name="Idotaccent" unicode="&#x130;" horiz-adv-x="538" 
d="M336 0h-133v1434h133v-1434zM164 1720q0 42 30.5 74.5t73.5 32.5q42 0 74.5 -32.5t32.5 -74.5q0 -44 -32 -74t-75 -30q-44 0 -74 30t-30 74z" />
    <glyph glyph-name="dotlessi" unicode="&#x131;" horiz-adv-x="516" 
d="M322 0h-129v1024h129v-1024z" />
    <glyph glyph-name="IJ" unicode="&#x132;" horiz-adv-x="1462" 
d="M901 -20q-88 0 -153 14.5t-140 46.5v131q136 -68 279 -68q146 0 216.5 88.5t70.5 294.5v947h131v-961q0 -252 -105 -372.5t-299 -120.5zM205 0v1434h131v-1434h-131z" />
    <glyph glyph-name="ij" unicode="&#x133;" horiz-adv-x="1013" 
d="M524 -434q42 38 66.5 65.5t50.5 71t37.5 101t11.5 133.5v1087h129v-1092q0 -88 -15.5 -158.5t-45.5 -124t-65 -92.5t-85 -77zM195 0v1024h127v-1024h-127zM754 1307q-44 0 -74.5 31t-30.5 75q0 42 30.5 73.5t74.5 31.5q42 0 73 -31.5t31 -73.5q0 -44 -30.5 -75t-73.5 -31
zM152 1413q0 42 30.5 73.5t73.5 31.5q42 0 73 -31.5t31 -73.5q0 -44 -30.5 -75t-73.5 -31q-44 0 -74 31t-30 75z" />
    <glyph glyph-name="Jcircumflex" unicode="&#x134;" horiz-adv-x="944" 
d="M90 172q71 -36 134 -52t143 -16q147 0 216.5 88t69.5 295v947h131v-961q0 -493 -403 -493q-155 0 -291 59v133zM438 1565l211 325h142l210 -325v-17h-122l-158 242h-2l-158 -242h-123v17z" />
    <glyph glyph-name="jcircumflex" unicode="&#x135;" horiz-adv-x="516" 
d="M111 -520l-84 86q42 36 67 64t50.5 71.5t37 101.5t11.5 134v1087h129v-1092q0 -116 -29 -204.5t-72 -142.5t-110 -105zM-25 1206l222 344h120l222 -344v-14h-123l-158 242h-2l-158 -242h-123v14z" />
    <glyph glyph-name="uni0136" unicode="&#x136;" horiz-adv-x="1277" 
d="M205 0v1434h131v-631h2l702 631h160v-13l-735 -665l764 -744v-12h-164l-727 705h-2v-705h-131zM561 -508l86 348h123v-14l-88 -334h-121z" />
    <glyph glyph-name="uni0137" unicode="&#x137;" horiz-adv-x="1024" 
d="M324 0h-131v1565h131v-977h4l473 436h149v-12l-512 -480l543 -520v-12h-156l-497 471h-4v-471zM569 -508h-120l83 348h125v-14z" />
    <glyph glyph-name="kgreenlandic" unicode="&#x138;" horiz-adv-x="1026" 
d="M324 0h-129v1024h129v-436h6l473 436h149v-12l-514 -480l545 -520v-12h-156l-497 471h-6v-471z" />
    <glyph glyph-name="Lacute" unicode="&#x139;" horiz-adv-x="1130" 
d="M1040 0h-837v1434h133v-1311h715zM319 1561h-116v14l215 315h143v-16z" />
    <glyph glyph-name="lacute" unicode="&#x13a;" horiz-adv-x="516" 
d="M324 0h-129v1565h129v-1565zM535 1976l-220 -284h-116v14l194 287h142v-17z" />
    <glyph glyph-name="uni013B" unicode="&#x13b;" horiz-adv-x="1130" 
d="M336 1434v-1311h715l-9 -123h-839v1434h133zM502 -508l84 348h125v-14l-88 -334h-121z" />
    <glyph glyph-name="uni013C" unicode="&#x13c;" horiz-adv-x="516" 
d="M324 0h-129v1565h129v-1565zM111 -508l86 348h125v-14l-91 -334h-120z" />
    <glyph glyph-name="Lcaron" unicode="&#x13d;" horiz-adv-x="1130" 
d="M203 0v1434h133v-1311h715l-11 -123h-837zM635 891l-86 43q57 94 80.5 172t23.5 194v134h111v-123q0 -146 -30 -234t-99 -186z" />
    <glyph glyph-name="lcaron" unicode="&#x13e;" horiz-adv-x="583" 
d="M324 0h-131v1565h131v-1565zM444 1108l91 457h108v-13l-96 -444h-103z" />
    <glyph glyph-name="Ldot" unicode="&#x13f;" horiz-adv-x="1130" 
d="M819 821q0 43 31.5 75t75.5 32q42 0 73 -32t31 -75q0 -44 -30.5 -74t-73.5 -30q-45 0 -76 30t-31 74zM336 1434v-1309h715l-9 -125h-839v1434h133z" />
    <glyph glyph-name="ldot" unicode="&#x140;" horiz-adv-x="724" 
d="M500 827q0 43 31 75t75 32q43 0 74 -32t31 -75q0 -44 -31 -74t-74 -30q-44 0 -75 30t-31 74zM324 0h-131v1565h131v-1565z" />
    <glyph glyph-name="Lslash" unicode="&#x141;" horiz-adv-x="1130" 
d="M205 686l-170 -49v108l170 50v639h131v-600l405 118v-108l-405 -119v-602h715l-9 -123h-837v686z" />
    <glyph glyph-name="lslash" unicode="&#x142;" horiz-adv-x="516" 
d="M-14 721v108l207 60v676h129v-637l206 61v-108l-206 -60v-821h-129v782z" />
    <glyph glyph-name="Nacute" unicode="&#x143;" horiz-adv-x="1581" 
d="M336 0h-133v1434h125l917 -1174v1174h131v-1436h-94l-946 1208v-1206zM688 1575l213 315h143v-16l-239 -313h-117v14z" />
    <glyph glyph-name="nacute" unicode="&#x144;" 
d="M193 0v1024h129v-168q65 77 179.5 132.5t237.5 55.5q152 0 230 -100t78 -317v-627h-132v604q0 168 -55 243t-164 75q-104 0 -208 -57.5t-166 -135.5v-729h-129zM635 1221h-117v14l215 315h141v-16z" />
    <glyph glyph-name="uni0145" unicode="&#x145;" horiz-adv-x="1581" 
d="M336 0h-131v1434h125l915 -1174v1174h131v-1436h-92l-948 1208v-1206zM776 -508h-121l86 348h123v-14z" />
    <glyph glyph-name="uni0146" unicode="&#x146;" horiz-adv-x="1216" 
d="M195 1024h127v-168q65 77 179.5 132.5t237.5 55.5q152 0 230 -100t78 -317v-627h-129l-3 604q0 167 -55 242.5t-164 75.5q-104 0 -208 -57.5t-166 -135.5v-729h-127v1024zM616 -508h-120l86 348h123v-14z" />
    <glyph glyph-name="Ncaron" unicode="&#x147;" horiz-adv-x="1581" 
d="M336 0h-133v1434h125l917 -1174v1174h131v-1436h-94l-948 1208zM502 1878h123l157 -231h2l158 231h123v-14l-211 -316h-141l-211 316v14z" />
    <glyph glyph-name="ncaron" unicode="&#x148;" horiz-adv-x="1216" 
d="M322 0h-129v1024h129v-168q65 76 176.5 132t222.5 56q165 0 245.5 -99t80.5 -318v-627h-132v604q0 170 -56.5 244t-174.5 74q-96 0 -198.5 -58t-163.5 -135v-729zM553 1192l-221 344v14h123l157 -241h4l156 241h125v-14l-221 -344h-123z" />
    <glyph glyph-name="napostrophe" unicode="&#x149;" horiz-adv-x="1216" 
d="M193 0v1024h129v-168q63 76 178.5 132t238.5 56q152 0 230 -100t78 -317v-627h-132v604q0 167 -55 242.5t-164 75.5q-104 0 -208 -57.5t-166 -135.5v-729h-129zM88 1180q59 95 82 165t23 177v43h112v-37q0 -124 -27 -203.5t-100 -189.5z" />
    <glyph glyph-name="Eng" unicode="&#x14a;" horiz-adv-x="1581" 
d="M336 0h-133v1434h125l917 -1174v1174h131v-1676q0 -75 -23.5 -129.5t-64 -83.5t-87.5 -42t-103 -13q-75 0 -160 25v120q73 -22 141 -22q168 0 168 154v270l-911 1169v-1206z" />
    <glyph glyph-name="eng" unicode="&#x14b;" horiz-adv-x="1216" 
d="M915 604q0 168 -55 243t-164 75q-104 0 -208 -57.5t-164 -135.5v-729h-129v1024h129l-2 -168q65 77 179.5 132.5t237.5 55.5q152 0 230 -100t78 -317v-869q0 -75 -23.5 -129.5t-65 -83.5t-88.5 -42t-104 -13h-20.5t-20 1t-16.5 1.5t-17 2.5t-15 2.5t-17 4t-15.5 4
t-19 4.5t-19.5 5v120q76 -22 144 -22q168 0 168 154z" />
    <glyph glyph-name="Omacron" unicode="&#x14c;" horiz-adv-x="1558" 
d="M94 717q0 143 50 276.5t137.5 235.5t217.5 163.5t279 61.5t279 -61.5t218.5 -163.5t138.5 -235.5t50 -276.5t-50 -276.5t-137.5 -235.5t-217.5 -163.5t-279 -61.5t-279 61.5t-218.5 163.5t-138.5 235.5t-50 276.5zM229 717q0 -113 39.5 -222t109 -196.5t174.5 -141
t226 -53.5q98 0 186 35t153.5 95t114 138t73 166.5t24.5 178.5t-24.5 178.5t-73 166.5t-114 137.5t-153.5 94.5t-186 35q-121 0 -226 -53.5t-174.5 -140.5t-109 -196t-39.5 -222zM522 1636v121h512v-121h-512z" />
    <glyph glyph-name="omacron" unicode="&#x14d;" horiz-adv-x="1161" 
d="M84 512q0 105 35.5 201.5t99 170t158 117t205.5 43.5q146 0 260.5 -74.5t174.5 -195.5t60 -262t-60 -262t-174.5 -195.5t-260.5 -74.5q-111 0 -205.5 43.5t-158 117t-99 170t-35.5 201.5zM215 512q0 -107 43 -199.5t128 -151.5t194 -59q110 0 195.5 59t128 151.5
t42.5 199.5t-42.5 199.5t-128 151.5t-195.5 59q-109 0 -194 -59t-128 -151.5t-43 -199.5zM324 1300v121h514v-121h-514z" />
    <glyph glyph-name="Obreve" unicode="&#x14e;" horiz-adv-x="1558" 
d="M780 -20q-149 0 -279 61.5t-218.5 163.5t-138.5 235.5t-50 276.5t50 276.5t138.5 235.5t218.5 163.5t279 61.5t279 -61.5t217.5 -163.5t137.5 -235.5t50 -276.5t-50 -276.5t-137.5 -235.5t-217.5 -163.5t-279 -61.5zM780 1329q-98 0 -186 -35t-153.5 -94.5t-114 -137.5
t-73 -166.5t-24.5 -178.5t24.5 -178.5t73 -166.5t114 -138t153.5 -95t186 -35q97 0 185 35t153.5 95t114 138t73.5 166.5t25 178.5q0 112 -40 221.5t-109.5 196.5t-175 140.5t-226.5 53.5zM504 1841h112q11 -82 53 -128t109 -46t109.5 45.5t54.5 128.5h113
q-22 -135 -93.5 -208.5t-183.5 -73.5q-110 0 -181 73.5t-93 208.5z" />
    <glyph glyph-name="obreve" unicode="&#x14f;" horiz-adv-x="1161" 
d="M582 -20q-111 0 -205.5 43.5t-158 117t-99 170t-35.5 201.5t35.5 201.5t99 170t158 117t205.5 43.5q146 0 260.5 -74.5t174.5 -195.5t60 -262t-60 -262t-174.5 -195.5t-260.5 -74.5zM582 922q-108 0 -193.5 -59.5t-129.5 -152t-44 -198.5t44 -198.5t129.5 -152
t193.5 -59.5t193 59.5t128 152t43 198.5t-43 198.5t-128 152t-193 59.5zM305 1509h113q12 -83 54.5 -128.5t109.5 -45.5q66 0 108 46t53 128h113q-22 -136 -93 -209t-181 -73q-112 0 -183.5 72.5t-93.5 209.5z" />
    <glyph glyph-name="Ohungarumlaut" unicode="&#x150;" horiz-adv-x="1558" 
d="M94 717q0 143 50 276.5t137.5 235.5t217.5 163.5t279 61.5t279 -61.5t218.5 -163.5t138.5 -235.5t50 -276.5t-50 -276.5t-137.5 -235.5t-217.5 -163.5t-279 -61.5t-279 61.5t-218.5 163.5t-138.5 235.5t-50 276.5zM229 717q0 -113 39.5 -222t109 -196.5t174.5 -141
t226 -53.5q98 0 186 35t153.5 95t114 138t73 166.5t24.5 178.5t-24.5 178.5t-73 166.5t-114 137.5t-153.5 94.5t-186 35q-121 0 -226 -53.5t-174.5 -140.5t-109 -196t-39.5 -222zM580 1561l182 329h143l-213 -329h-112zM854 1561l182 329h133v-16l-202 -313h-113z" />
    <glyph glyph-name="ohungarumlaut" unicode="&#x151;" horiz-adv-x="1161" 
d="M582 -20q-111 0 -205.5 43.5t-158 117t-99 170t-35.5 201.5t35.5 201.5t99 170t158 117t205.5 43.5q146 0 260.5 -74.5t174.5 -195.5t60 -262t-60 -262t-174.5 -195.5t-260.5 -74.5zM215 512q0 -106 44 -198.5t129.5 -152t193.5 -59.5t193 59.5t128 152t43 198.5
t-43 198.5t-128 152t-193 59.5t-193.5 -59.5t-129.5 -152t-44 -198.5zM377 1221l182 329h143l-213 -329h-112zM651 1221l183 329h133v-14l-203 -315h-113z" />
    <glyph glyph-name="OE" unicode="&#x152;" horiz-adv-x="2072" 
d="M795 -20q-104 0 -199 28t-171.5 77t-139 118t-104.5 150.5t-64.5 173.5t-22.5 188q0 116 32 225.5t93.5 202t145.5 162t195 108.5t235 39q112 0 280 -20h844v-123h-770v-525h731v-122h-731v-537h782l-10 -125h-846q-48 -8 -138.5 -14t-141.5 -6zM229 715
q0 -114 40.5 -223t112.5 -195.5t182 -139.5t239 -53q45 0 114 5.5t101 13.5v1184q-67 20 -215 20q-129 0 -239 -53t-182 -139.5t-112.5 -196t-40.5 -223.5z" />
    <glyph glyph-name="oe" unicode="&#x153;" horiz-adv-x="1980" 
d="M582 -20q-111 0 -205.5 43.5t-158 117t-99 170t-35.5 201.5t35.5 201.5t99 170t158 117t205.5 43.5q143 0 254.5 -70.5t175.5 -189.5q61 120 169.5 190t254.5 70q109 0 193.5 -40.5t136.5 -111t78.5 -159.5t27.5 -192l-2 -80h-791q12 -171 115 -265t291 -94q173 0 346 91
v-130q-162 -83 -342 -83q-174 0 -296 65.5t-185 185.5q-66 -115 -176 -183t-250 -68zM215 512q0 -107 43 -199.5t128.5 -151.5t195.5 -59q109 0 194 59t127.5 151.5t42.5 199.5t-42.5 199.5t-127.5 151.5t-194 59q-110 0 -195.5 -59t-128.5 -151.5t-43 -199.5zM1079 569h662
v9q0 69 -18.5 130.5t-54.5 111t-96.5 79t-137.5 29.5q-148 0 -244 -101t-111 -258z" />
    <glyph glyph-name="Racute" unicode="&#x154;" horiz-adv-x="1251" 
d="M334 0h-131v1434h475q230 0 352.5 -122t122.5 -315q0 -170 -97.5 -288.5t-281.5 -143.5l379 -553v-12h-149l-383 559h-287v-559zM334 1309v-627h330q174 0 264 85.5t90 231.5q0 144 -90 227t-264 83h-330zM682 1561h-119v14l215 315h144v-16z" />
    <glyph glyph-name="racute" unicode="&#x155;" horiz-adv-x="794" 
d="M322 0h-129v1024h129v-190q33 44 60 74t69 65t93.5 53t110.5 18q63 0 107 -14l-12 -131q-67 19 -105 19q-51 0 -100 -19.5t-90.5 -56t-70.5 -68.5t-62 -76v-698zM397 1221v14l213 315h144v-16l-240 -313h-117z" />
    <glyph glyph-name="uni0156" unicode="&#x156;" horiz-adv-x="1251" 
d="M203 1434h475q230 0 352.5 -122t122.5 -315q0 -170 -97.5 -288.5t-281.5 -143.5l379 -553v-12h-149l-383 559h-287v-559h-131v1434zM664 1309h-330v-627h330q174 0 264 85.5t90 231.5q0 144 -90 227t-264 83zM651 -508h-121l86 348h123v-14z" />
    <glyph glyph-name="uni0157" unicode="&#x157;" horiz-adv-x="794" 
d="M322 0h-129v1024h129v-190q33 44 60 74t69 65t93.5 53t110.5 18q63 0 107 -14l-12 -131q-63 19 -105 19q-51 0 -100.5 -20.5t-91.5 -57.5t-70.5 -68.5t-60.5 -73.5v-698zM111 -508l84 348h124v-14l-88 -334h-120z" />
    <glyph glyph-name="Rcaron" unicode="&#x158;" horiz-adv-x="1251" 
d="M205 0v1434h475q230 0 352.5 -122t122.5 -315q0 -170 -97.5 -288.5t-281.5 -143.5l377 -553v-12h-147l-383 559h-287v-559h-131zM336 1309v-627h330q174 0 264 85.5t90 231.5q0 144 -90 227t-264 83h-330zM584 1548l-211 316v14h123l157 -231h2l158 231h123v-14
l-211 -316h-141z" />
    <glyph glyph-name="rcaron" unicode="&#x159;" horiz-adv-x="794" 
d="M195 0v1024h129v-190q26 35 46 59t53 55t64.5 50t75.5 32.5t92 13.5q67 0 107 -14l-12 -131q-67 19 -103 19q-52 0 -100.5 -19.5t-91 -56.5t-70.5 -68t-63 -76l2 -698h-129zM207 1550h123l157 -241h2l158 241h123v-14l-221 -344h-121l-221 344v14z" />
    <glyph glyph-name="Sacute" unicode="&#x15a;" horiz-adv-x="1189" 
d="M1018 1335l-14 -131q-98 63 -193.5 96t-208.5 33q-151 0 -238.5 -66.5t-87.5 -174.5q0 -56 27.5 -100t74 -73.5t107 -54t127.5 -47t133.5 -47.5t127 -59t107 -77t74 -107.5t27.5 -145.5q0 -183 -132 -292t-363 -109q-131 0 -237 34t-212 92v134q113 -65 219 -103.5
t226 -38.5q177 0 273.5 79t96.5 200q0 78 -44.5 135t-115.5 91.5t-156.5 63.5t-171.5 61.5t-157 74.5t-115.5 114t-44.5 170q0 163 125 265t328 102q224 0 418 -119zM887 1874l-240 -313h-119v14l215 315h144v-16z" />
    <glyph glyph-name="sacute" unicode="&#x15b;" horiz-adv-x="909" 
d="M727 1534l-240 -313h-118v14l215 315h143v-16zM104 76v131q191 -109 347 -109q111 0 174 47t63 125q0 53 -31.5 92t-82 62.5t-111.5 43.5t-122.5 43t-112 53t-82 81.5t-31.5 120.5q0 129 99 203.5t247 74.5q169 0 303 -83l-12 -125q-134 90 -277 90q-99 0 -164 -42
t-65 -112q0 -40 24.5 -71t65 -50t92 -38.5t105 -35.5t105 -42t92 -57.5t65 -83.5t24.5 -118q0 -137 -99.5 -216.5t-266.5 -79.5q-174 0 -349 96z" />
    <glyph glyph-name="Scircumflex" unicode="&#x15c;" horiz-adv-x="1189" 
d="M137 106v134q113 -65 219 -103.5t226 -38.5q177 0 273.5 79t96.5 200q0 78 -44.5 135t-115.5 91.5t-156.5 63.5t-171.5 61.5t-157 74.5t-115.5 114t-44.5 170q0 163 125 265t328 102q224 0 418 -119l-14 -131q-98 63 -193.5 96t-208.5 33q-151 0 -238.5 -66.5
t-87.5 -174.5q0 -56 27.5 -100t74.5 -73.5t107.5 -54t127 -47t133.5 -47.5t127.5 -59t107 -77t73.5 -107.5t27 -145.5q2 -183 -131 -292t-364 -109q-131 0 -237 34t-212 92zM330 1548v17l211 325h141l213 -325v-17h-125l-156 242h-4l-157 -242h-123z" />
    <glyph glyph-name="scircumflex" unicode="&#x15d;" horiz-adv-x="909" 
d="M104 207q191 -109 347 -109q111 0 174 47t63 125q0 53 -31.5 92t-82 62.5t-111.5 43.5t-122.5 43t-112 53t-82 81.5t-31.5 120.5q0 129 99 203.5t247 74.5q169 0 303 -83l-12 -125q-134 90 -277 90q-99 0 -164 -42t-65 -112q0 -40 24.5 -71t65 -50t92 -38.5t105 -35.5
t105 -42t92 -57.5t65 -83.5t24.5 -118q0 -137 -99.5 -216.5t-266.5 -79.5q-174 0 -349 96v131zM299 1192h-123v14l221 344h123l221 -344v-14h-123l-157 242h-4z" />
    <glyph glyph-name="Scedilla" unicode="&#x15e;" horiz-adv-x="1189" 
d="M137 106v134q113 -65 219 -103.5t226 -38.5q177 0 273.5 79t96.5 200q0 78 -44.5 135t-115.5 91.5t-156.5 63.5t-171.5 61.5t-157 74.5t-115.5 114t-44.5 170q0 163 125 265t328 102q224 0 418 -119l-14 -131q-202 129 -402 129q-151 0 -238.5 -66.5t-87.5 -174.5
q0 -56 27.5 -100t74.5 -73.5t107.5 -54t127 -47t133.5 -47.5t127.5 -59t107 -77t73.5 -107.5t27 -145.5q2 -165 -107.5 -271t-305.5 -126l-52 -125q83 -3 139 -49t56 -129q0 -87 -65 -138t-173 -51q-78 0 -167 29l2 108q80 -30 149 -30q139 0 139 84q0 92 -170 92l-26 41
l69 164q-125 3 -228 36.5t-204 89.5z" />
    <glyph glyph-name="scedilla" unicode="&#x15f;" horiz-adv-x="909" 
d="M104 207q191 -109 347 -109q111 0 174 47t63 125q0 53 -31.5 92t-82 62.5t-111.5 43.5t-122.5 43t-112 53t-82 81.5t-31.5 120.5q0 129 99 203.5t247 74.5q169 0 303 -83l-12 -125q-134 90 -277 90q-99 0 -164 -42t-65 -112q0 -40 24.5 -71t65 -50t92 -38.5t105 -35.5
t105 -42t92 -57.5t65 -83.5t24.5 -118q0 -121 -79 -198t-216 -94l-51 -125q82 -2 138.5 -48.5t56.5 -129.5q0 -87 -65.5 -137t-176.5 -50q-85 0 -164 27v108q94 -30 154 -30q137 0 137 84q0 94 -170 94l-27 39l70 164q-165 7 -322 96v131z" />
    <glyph glyph-name="Scaron" unicode="&#x160;" horiz-adv-x="1189" 
d="M586 -20q-131 0 -237 34t-212 92v134q113 -65 219 -103.5t226 -38.5q177 0 273.5 79t96.5 200q0 78 -44.5 135t-115.5 91.5t-156.5 63.5t-171.5 61.5t-157 74.5t-115.5 114t-44.5 170q0 163 125 265t328 102q224 0 418 -119l-14 -131q-98 63 -193.5 96t-208.5 33
q-151 0 -238.5 -66.5t-87.5 -174.5q0 -56 27.5 -100t74.5 -73.5t107.5 -54t127 -47t133.5 -47.5t127.5 -59t107 -77t73.5 -107.5t27 -145.5q2 -183 -131 -292t-364 -109zM336 1878h125l155 -231h5l157 231h123v-14l-211 -316h-141l-213 316v14z" />
    <glyph glyph-name="scaron" unicode="&#x161;" horiz-adv-x="909" 
d="M102 207q196 -109 349 -109q111 0 174 47t63 125q0 53 -31.5 92t-82 62.5t-111.5 43.5t-122.5 43t-112 53t-82 81.5t-31.5 120.5q0 130 98 204t248 74q165 0 303 -83l-12 -125q-137 90 -277 90q-99 0 -164 -42t-65 -112q0 -40 24.5 -71t65 -50t92 -38.5t105 -35.5
t105 -42t92 -57.5t65 -83.5t24.5 -118q0 -137 -99.5 -216.5t-266.5 -79.5q-172 0 -351 96v131zM397 1192l-221 344v14h123l158 -241h4l155 241h125v-14l-221 -344h-123z" />
    <glyph glyph-name="uni0162" unicode="&#x162;" horiz-adv-x="1126" 
d="M41 1434h1044l-10 -125h-446v-1309h-11l-47 -141q83 -3 140 -50t57 -131q0 -87 -65 -136.5t-173 -49.5q-79 0 -168 29l3 106q85 -28 149 -28q139 0 139 84q0 92 -170 92l-26 39l63 186h-22v1309h-457v125z" />
    <glyph glyph-name="uni0163" unicode="&#x163;" horiz-adv-x="749" 
d="M199 907h-136v117h138l2 293h125v-293h303l-10 -117h-293v-680q0 -66 33.5 -95.5t107.5 -29.5q66 0 164 31v-121q-90 -30 -168 -32l-49 -121q81 -3 136.5 -49t55.5 -129q0 -87 -65 -137t-176 -50q-81 0 -164 27l2 108q91 -30 151 -30q69 0 103.5 22.5t34.5 61.5
q0 92 -170 92l-27 41l72 172q-170 34 -170 227v692z" />
    <glyph glyph-name="Tcaron" unicode="&#x164;" horiz-adv-x="1126" 
d="M41 1434h1044l-8 -125h-448v-1309h-131v1309h-457v125zM492 1548l-211 316v14h122l158 -231h4l158 231h123v-14l-211 -316h-143z" />
    <glyph glyph-name="tcaron" unicode="&#x165;" horiz-adv-x="749" 
d="M199 907h-136v117h138l2 293h125l2 -293h299l-8 -117h-293v-680q0 -125 143 -125q51 0 162 29v-119q-98 -32 -178 -32q-256 0 -256 235v692zM561 1174h-96l76 391h104v-13z" />
    <glyph glyph-name="Tbar" unicode="&#x166;" horiz-adv-x="1126" 
d="M41 1309v125h1044l-10 -125h-446v-504h321v-109h-321v-696h-131v696h-322v109h322v504h-457z" />
    <glyph glyph-name="tbar" unicode="&#x167;" horiz-adv-x="749" 
d="M63 518v109h136v280h-136v117h138l2 293h125v-293h303l-10 -117h-293v-280h297v-109h-297v-291q0 -65 32 -95t97 -30q79 0 174 31v-121q-98 -32 -195 -32q-237 0 -237 235v303h-136z" />
    <glyph glyph-name="Utilde" unicode="&#x168;" horiz-adv-x="1357" 
d="M160 1434h131v-885q0 -220 98.5 -332.5t290.5 -112.5t288.5 112.5t96.5 332.5v885h133v-899q0 -265 -133.5 -410t-384.5 -145q-253 0 -386.5 145t-133.5 410v899zM362 1569q-27 128 12 194t128 66q75 0 160 -62l110 -77q39 -27 72 -27q71 0 39 152h106
q26 -128 -12.5 -195.5t-126.5 -67.5q-74 0 -162 64l-110 76q-40 28 -70 28q-35 0 -46 -31t5 -120h-105z" />
    <glyph glyph-name="utilde" unicode="&#x169;" horiz-adv-x="1212" 
d="M166 397v627h131v-602q0 -168 54.5 -244t164.5 -76q104 0 207.5 57.5t165.5 135.5v729h129v-1024h-129v168q-63 -76 -178.5 -132t-237.5 -56q-152 0 -229.5 100t-77.5 317zM287 1262q-25 130 11.5 197t121.5 67q70 0 155 -62l103 -80q33 -26 67 -26q35 0 46 30t-3 121
h105q25 -129 -11.5 -195.5t-121.5 -66.5q-69 0 -154 62l-102 80q-36 26 -68 26q-37 0 -48 -30.5t5 -122.5h-106z" />
    <glyph glyph-name="Umacron" unicode="&#x16a;" horiz-adv-x="1357" 
d="M160 535v899h131v-885q0 -220 98.5 -332.5t290.5 -112.5t289.5 112.5t97.5 332.5v885h131v-899q0 -265 -133.5 -410t-384.5 -145q-253 0 -386.5 145t-133.5 410zM424 1757h512v-121h-512v121z" />
    <glyph glyph-name="umacron" unicode="&#x16b;" horiz-adv-x="1212" 
d="M166 397v627h131v-602q0 -168 54.5 -244t164.5 -76q104 0 207.5 57.5t165.5 135.5v729h129v-1024h-129v168q-63 -76 -178.5 -132t-237.5 -56q-152 0 -229.5 100t-77.5 317zM848 1300h-512v121h512v-121z" />
    <glyph glyph-name="Ubreve" unicode="&#x16c;" horiz-adv-x="1357" 
d="M678 -20q-253 0 -386.5 145t-133.5 410v899h133v-885q0 -220 97.5 -332.5t289.5 -112.5t289.5 112.5t97.5 332.5v885h131v-899q0 -265 -132.5 -410t-385.5 -145zM678 1559q-110 0 -181.5 73.5t-93.5 208.5h111q12 -83 54.5 -128.5t109.5 -45.5t109.5 45.5t54.5 128.5h112
q-22 -136 -93 -209t-183 -73z" />
    <glyph glyph-name="ubreve" unicode="&#x16d;" horiz-adv-x="1212" 
d="M166 1024h131v-602q0 -168 55 -244t164 -76q104 0 207.5 57.5t165.5 135.5v729h129v-1024h-129v168q-63 -76 -178 -132t-238 -56q-152 0 -229.5 100t-77.5 317v627zM317 1509h113q11 -82 53 -128t109 -46t109.5 45.5t54.5 128.5h112q-22 -137 -93 -209.5t-183 -72.5
q-111 0 -182 73t-93 209z" />
    <glyph glyph-name="Uring" unicode="&#x16e;" horiz-adv-x="1357" 
d="M160 1434h131v-885q0 -220 98.5 -332.5t290.5 -112.5t289.5 112.5t97.5 332.5v885h131v-899q0 -265 -132.5 -410t-385.5 -145t-386.5 145t-133.5 410v899zM477 1700q0 86 59 144.5t144 58.5q84 0 143.5 -58.5t59.5 -144.5q0 -84 -59.5 -142.5t-143.5 -58.5q-85 0 -144 58
t-59 143zM680 1810q-46 0 -77.5 -32.5t-31.5 -77.5q0 -48 31 -80.5t78 -32.5q46 0 77 33t31 80q0 45 -31.5 77.5t-76.5 32.5z" />
    <glyph glyph-name="uring" unicode="&#x16f;" horiz-adv-x="1212" 
d="M166 1024h131v-602q0 -168 54.5 -244t164.5 -76q104 0 207.5 57.5t165.5 135.5v729h129v-1024h-129v168q-65 -77 -179.5 -132.5t-236.5 -55.5q-152 0 -229.5 100t-77.5 317v627zM594 1188q-85 0 -144 58t-59 143t59 143.5t144 58.5q84 0 143.5 -59t59.5 -143
t-59.5 -142.5t-143.5 -58.5zM594 1499q-47 0 -79 -32.5t-32 -77.5q0 -47 32 -80t79 -33q46 0 77 33t31 80q0 45 -31.5 77.5t-76.5 32.5z" />
    <glyph glyph-name="Uhungarumlaut" unicode="&#x170;" horiz-adv-x="1357" 
d="M160 535v899h131v-885q0 -220 98.5 -332.5t290.5 -112.5t289.5 112.5t97.5 332.5v885h131v-899q0 -265 -133.5 -410t-384.5 -145q-253 0 -386.5 145t-133.5 410zM571 1561h-112l182 329h143zM846 1561h-113l182 329h134v-16z" />
    <glyph glyph-name="uhungarumlaut" unicode="&#x171;" horiz-adv-x="1212" 
d="M166 1024h131v-602q0 -168 55 -244t164 -76q104 0 207.5 57.5t165.5 135.5v729h129v-1024h-129v168q-63 -76 -178 -132t-238 -56q-152 0 -229.5 100t-77.5 317v627zM381 1221l182 329h144l-213 -329h-113zM768 1221h-113l183 329h133v-14z" />
    <glyph glyph-name="Uogonek" unicode="&#x172;" horiz-adv-x="1357" 
d="M160 535v899h131v-885q0 -220 98.5 -332.5t290.5 -112.5t289.5 112.5t97.5 332.5v885h131v-899q0 -203 -80 -338t-233 -187q-246 -172 -246 -311q0 -47 28.5 -74.5t88.5 -27.5q49 0 129 22l-13 -104q-71 -21 -131 -21q-98 0 -155.5 52t-57.5 141q0 150 183 293
q-274 0 -412.5 140t-138.5 415z" />
    <glyph glyph-name="uogonek" unicode="&#x173;" horiz-adv-x="1212" 
d="M166 397v627h131v-602q0 -168 55 -244t164 -76q104 0 207.5 57.5t165.5 135.5v729h129v-1024q-111 -72 -174.5 -149.5t-63.5 -151.5q0 -47 28.5 -74.5t88.5 -27.5q47 0 127 22l-12 -104q-71 -21 -131 -21q-98 0 -154.5 52t-56.5 141q0 90 61 172t158 149v160
q-63 -76 -177.5 -132t-236.5 -56q-153 0 -231 100.5t-78 316.5z" />
    <glyph glyph-name="Wcircumflex" unicode="&#x174;" horiz-adv-x="1964" 
d="M487 -2l-452 1423v13h141l361 -1147h2l395 1147v2l98 -2l395 -1147h3l360 1147h141v-13l-454 -1423h-86l-408 1196h-2l-406 -1196h-88zM825 1548h-125v17l213 325h142l211 -325v-17h-123l-158 242h-4z" />
    <glyph glyph-name="wcircumflex" unicode="&#x175;" horiz-adv-x="1484" 
d="M37 1024h135l252 -780h2l260 780h113l260 -780h2l252 780h135v-12l-336 -1016h-88l-279 817h-4l-280 -817h-86l-338 1016v12zM461 1206l221 344h121l221 -344v-14h-123l-158 242h-2l-157 -242h-123v14z" />
    <glyph glyph-name="Ycircumflex" unicode="&#x176;" horiz-adv-x="1142" 
d="M506 649l-471 772v13h139l399 -648l396 648h141v-13l-473 -772v-649h-131v649zM293 1565l211 325h141l211 -325v-17h-123l-158 242h-2l-157 -242h-123v17z" />
    <glyph glyph-name="ycircumflex" unicode="&#x177;" horiz-adv-x="1024" 
d="M442 4l-405 1008v12h137l338 -848h2l338 848h135v-12l-502 -1245q-27 -68 -52.5 -113.5t-61.5 -85.5t-85 -59t-112 -19q-31 0 -43 2l-49 127q25 -6 76 -6q45 0 77.5 13.5t57 46t39.5 63t37 88.5zM231 1192v14l222 344h120l222 -344v-14h-123l-158 242h-2l-158 -242h-123z
" />
    <glyph glyph-name="Ydieresis" unicode="&#x178;" horiz-adv-x="1142" 
d="M506 649l-473 772v13h141l397 -648l398 648h139v-13l-471 -772v-649h-131v649zM756 1589q-43 0 -75 31.5t-32 75.5q0 43 32 74.5t75 31.5t74.5 -31.5t31.5 -74.5q0 -44 -31.5 -75.5t-74.5 -31.5zM283 1696q0 42 31 74t75 32q41 0 73 -32.5t32 -73.5q0 -44 -31.5 -75.5
t-73.5 -31.5q-44 0 -75 31.5t-31 75.5z" />
    <glyph glyph-name="Zacute" unicode="&#x179;" horiz-adv-x="1294" 
d="M903 1874l-239 -313h-119v14l215 315h143v-16zM94 0v82l887 1229h-840v123h1008v-121l-854 -1190h891l-10 -123h-1082z" />
    <glyph glyph-name="zacute" unicode="&#x17a;" horiz-adv-x="968" 
d="M879 117l-9 -117h-778v80l608 827h-579v117h741v-106l-588 -801h605zM772 1534l-240 -313h-118v14l215 315h143v-16z" />
    <glyph glyph-name="Zdotaccent" unicode="&#x17b;" horiz-adv-x="1294" 
d="M94 0v82l889 1229h-842v123h1010v-121l-856 -1190h891l-8 -123h-1084zM547 1720q0 42 31.5 74.5t74.5 32.5q42 0 73.5 -32.5t31.5 -74.5q0 -44 -31 -74t-74 -30q-44 0 -75 30t-31 74z" />
    <glyph glyph-name="zdotaccent" unicode="&#x17c;" horiz-adv-x="968" 
d="M879 117l-11 -117h-776v80l608 827h-579v117h741v-106l-588 -801h605zM387 1413q0 42 31.5 73.5t75.5 31.5q42 0 73 -31.5t31 -73.5q0 -44 -30.5 -75t-73.5 -31q-44 0 -75.5 31t-31.5 75z" />
    <glyph glyph-name="Zcaron" unicode="&#x17d;" horiz-adv-x="1294" 
d="M94 0v82l887 1229h-840v123h1008v-121l-854 -1190h891l-10 -123h-1082zM573 1548l-211 316v14h123l158 -231h2l158 231h123v-14l-211 -316h-142z" />
    <glyph glyph-name="zcaron" unicode="&#x17e;" horiz-adv-x="968" 
d="M94 80l606 827h-577v117h741v-106l-588 -801h605l-11 -117h-776v80zM434 1192l-221 344v14h123l158 -241h2l157 241h123v-14l-221 -344h-121z" />
    <glyph glyph-name="longs" unicode="&#x17f;" horiz-adv-x="745" 
d="M653 1554v-122q-73 24 -143 24q-166 0 -166 -153v-1303h-129v1309q0 76 23.5 130.5t64.5 84t88 42.5t103 13q50 0 77.5 -5t81.5 -20z" />
    <glyph glyph-name="florin" unicode="&#x192;" horiz-adv-x="856" 
d="M-76 -412q56 -22 127 -22h2q64 0 111.5 37t58.5 118l131 926h-225v109l242 6l59 418q19 139 95.5 206.5t185.5 67.5q88 0 145 -24v-119q-58 22 -127 22q-65 0 -112 -36.5t-58 -118.5l-59 -416h274v-115h-291l-131 -928q-19 -136 -95 -205t-183 -69q-93 0 -150 23v120z
" />
    <glyph glyph-name="Aringacute" unicode="&#x1fa;" horiz-adv-x="1363" 
d="M35 12l581 1422h132l583 -1422v-12h-135l-149 365h-730l-149 -365h-133v12zM682 1262l-317 -773h632l-313 773h-2zM682 1499q-85 0 -143 58t-58 143q0 86 58 144.5t143 58.5q84 0 143.5 -58.5t59.5 -144.5q0 -84 -59.5 -142.5t-143.5 -58.5zM743 1946h-116v16l215 313
h141v-16zM682 1810q-46 0 -77.5 -32.5t-31.5 -77.5q0 -48 31 -80.5t78 -32.5t78 32.5t31 80.5q0 45 -31.5 77.5t-77.5 32.5z" />
    <glyph glyph-name="aringacute" unicode="&#x1fb;" horiz-adv-x="1085" 
d="M193 844l-9 127q171 73 338 73q197 0 296.5 -98t99.5 -319v-627h-132l2 125q-171 -145 -376 -145q-148 0 -235 74.5t-87 211.5q0 86 36 150.5t99.5 102t141.5 55.5t170 18q116 0 251 -27l-2 53q1 87 -16.5 147t-54 94t-85 48.5t-116.5 14.5q-175 0 -321 -78zM788 236v225
q-117 24 -237 24q-150 0 -240 -52t-90 -159q0 -91 60 -134.5t159 -43.5q180 0 348 140zM330 1389q0 85 58.5 143.5t143.5 58.5q84 0 143.5 -59t59.5 -143t-59.5 -142.5t-143.5 -58.5q-85 0 -143.5 58t-58.5 143zM422 1389q0 -48 31.5 -80.5t78.5 -32.5t78 32.5t31 80.5
q0 45 -31.5 77.5t-77.5 32.5q-47 0 -78.5 -32.5t-31.5 -77.5zM817 1970l-239 -313h-117v14l213 316h143v-17z" />
    <glyph glyph-name="AEacute" unicode="&#x1fc;" horiz-adv-x="1914" 
d="M35 0v18l756 1416h970v-123h-768v-525h729v-124h-729v-539h781l-11 -123h-903v365h-498l-194 -365h-133zM428 489h432v799h-2zM1096 1561h-117v14l213 315h143v-16z" />
    <glyph glyph-name="aeacute" unicode="&#x1fd;" horiz-adv-x="1822" 
d="M432 -20q-158 0 -250 74.5t-92 213.5q0 85 36.5 149.5t100 101.5t142 55t170.5 18q118 0 249 -27v53q0 169 -67.5 236.5t-204.5 67.5q-173 0 -323 -78l-9 127q174 73 332 73q281 0 365 -206q64 97 163 151.5t226 54.5q111 0 197 -40.5t138.5 -111t79.5 -159.5t27 -192
v-80h-792q12 -171 114 -265t289 -94q175 0 348 91v-130q-162 -83 -344 -83q-292 0 -434 184q-210 -184 -461 -184zM920 569h661v9q0 69 -18.5 130t-55.5 111t-99 79.5t-142 29.5q-142 0 -236.5 -101t-109.5 -258zM553 485q-149 0 -240.5 -53t-91.5 -158q0 -91 61.5 -134.5
t161.5 -43.5q112 0 213 44t177 120q-40 87 -46 201q-117 24 -235 24zM924 1221h-117v14l213 315h143v-16z" />
    <glyph glyph-name="Oslashacute" unicode="&#x1fe;" horiz-adv-x="1558" 
d="M266 225q-83 101 -127.5 228t-44.5 264q0 143 50 276.5t137.5 235.5t217.5 163.5t279 61.5q246 0 430 -160l138 156l86 -72l-144 -164q85 -101 130.5 -230t45.5 -267q0 -143 -50 -276.5t-137.5 -235.5t-217.5 -163.5t-279 -61.5q-249 0 -436 163l-129 -147l-88 74z
M1198 1112l-766 -870q148 -138 346 -138q98 0 186 35t153.5 95t114 138t73 166.5t24.5 178.5q0 104 -34 207t-97 188zM356 328l766 868q-149 133 -344 133q-121 0 -226 -53.5t-174.5 -140.5t-109 -196t-39.5 -222q0 -214 127 -389zM786 1561h-116v14l215 315h141v-16z" />
    <glyph glyph-name="oslashacute" unicode="&#x1ff;" horiz-adv-x="1161" 
d="M207 156q-123 148 -123 356q0 105 35.5 201.5t99 170t158 117t205.5 43.5q180 0 309 -110l90 100l70 -59l-95 -109q121 -149 121 -354q0 -141 -60 -262t-174.5 -195.5t-260.5 -74.5q-180 0 -310 108l-92 -104l-71 61zM293 254l516 584q-97 84 -227 84q-109 0 -194.5 -59
t-129 -151.5t-43.5 -199.5q0 -145 78 -258zM870 768l-514 -584q95 -82 226 -82q109 0 194 59t127.5 151.5t42.5 199.5q0 144 -76 256zM590 1221h-117v14l213 315h143v-16z" />
    <glyph glyph-name="uni0218" unicode="&#x218;" horiz-adv-x="1189" 
d="M1018 1335l-14 -131q-202 129 -402 129q-151 0 -238.5 -66.5t-87.5 -174.5q0 -56 27.5 -100t74.5 -73.5t107.5 -54t127 -47t133.5 -47.5t127.5 -59t107 -77t73.5 -107.5t27 -145.5q2 -183 -131 -292t-364 -109q-131 0 -237 34t-212 92v134q113 -65 219 -103.5t226 -38.5
q177 0 273.5 79t96.5 200q0 78 -44.5 135t-115.5 91.5t-156.5 63.5t-171.5 61.5t-157 74.5t-115.5 114t-44.5 170q0 163 125 265t328 102q224 0 418 -119zM483 -508l84 348h125v-14l-88 -334h-121z" />
    <glyph glyph-name="uni0219" unicode="&#x219;" horiz-adv-x="909" 
d="M104 76v131q191 -109 345 -109q112 0 175.5 47t63.5 123q0 53 -32 92t-82.5 62t-112 43t-123.5 43t-112.5 53.5t-82.5 83t-32 123.5q0 125 100 200.5t252 75.5q79 0 157 -23t138 -60l-10 -125q-137 90 -283 90q-96 0 -159.5 -41t-63.5 -107q0 -47 32 -81t82.5 -56
t112 -41.5t123.5 -44t112.5 -58t82.5 -90t32 -131.5q0 -136 -100 -216t-268 -80q-172 0 -347 96zM330 -508l86 348h123v-14l-88 -334h-121z" />
    <glyph glyph-name="uni021A" unicode="&#x21a;" horiz-adv-x="1126" 
d="M41 1309v125h1044l-8 -125h-448v-1309h-131v1309h-457zM537 -508h-121l84 348h125v-14z" />
    <glyph glyph-name="uni021B" unicode="&#x21b;" horiz-adv-x="749" 
d="M63 907v117h140v293h127v-293h301l-10 -117h-291v-680q0 -66 33.5 -95.5t107.5 -29.5q64 0 162 31v-121q-101 -32 -178 -32q-130 0 -192 57.5t-62 177.5v692h-138zM412 -508h-121l84 348h125v-14z" />
    <glyph glyph-name="uni0237" unicode="&#x237;" horiz-adv-x="516" 
d="M113 -520l-84 86q41 36 66 64t50 71.5t36.5 101.5t11.5 134v1087h129v-1092q0 -169 -53.5 -272t-155.5 -180z" />
    <glyph glyph-name="circumflex" unicode="&#x2c6;" horiz-adv-x="573" 
d="M4 1548v17l211 325h143l211 -325v-17h-123l-157 242h-4l-158 -242h-123z" />
    <glyph glyph-name="caron" unicode="&#x2c7;" horiz-adv-x="552" 
d="M205 1548l-211 316v14h123l157 -231h5l157 231h123v-14l-211 -316h-143z" />
    <glyph glyph-name="uni02C9" unicode="&#x2c9;" horiz-adv-x="638" 
d="M63 1636v121h512v-121h-512z" />
    <glyph glyph-name="breve" unicode="&#x2d8;" horiz-adv-x="563" 
d="M6 1815h113q23 -148 164 -148t161 148h113q-37 -256 -274 -256q-117 0 -187 60.5t-90 195.5z" />
    <glyph glyph-name="dotaccent" unicode="&#x2d9;" horiz-adv-x="342" 
d="M66 1720q0 42 31.5 74.5t74.5 32.5q42 0 73 -32.5t31 -74.5q0 -44 -30.5 -74t-73.5 -30q-44 0 -75 30t-31 74z" />
    <glyph glyph-name="ring" unicode="&#x2da;" horiz-adv-x="428" 
d="M12 1700q0 86 58 144.5t143 58.5t144 -58.5t59 -144.5q0 -85 -59 -143t-144 -58t-143 58t-58 143zM104 1700q0 -48 31 -80.5t78 -32.5t79 33t32 80q0 45 -32 77.5t-79 32.5q-46 0 -77.5 -32.5t-31.5 -77.5z" />
    <glyph glyph-name="ogonek" unicode="&#x2db;" horiz-adv-x="483" 
d="M385 -381l-14 -104q-71 -21 -131 -21q-98 0 -154.5 52t-56.5 141q0 96 70 184t177 158h103v-29q-240 -157 -240 -301q0 -47 28.5 -74.5t88.5 -27.5q49 0 129 22z" />
    <glyph glyph-name="tilde" unicode="&#x2dc;" horiz-adv-x="694" 
d="M328 1767l110 -77q39 -27 72 -27q71 0 39 152h106q26 -128 -12.5 -195.5t-126.5 -67.5q-74 0 -162 64l-110 76q-40 28 -70 28q-35 0 -46 -31t5 -120h-104q-27 128 11.5 194t127.5 66q75 0 160 -62z" />
    <glyph glyph-name="hungarumlaut" unicode="&#x2dd;" horiz-adv-x="501" 
d="M399 1561h-114l182 329h135v-16zM10 1561l183 329h145l-215 -329h-113z" />
    <glyph glyph-name="uni0394" unicode="&#x394;" horiz-adv-x="1363" 
d="M219 125h926l-463 1141zM35 0v12l581 1422h132l583 -1422v-12h-1296z" />
    <glyph glyph-name="uni03A9" unicode="&#x3a9;" horiz-adv-x="1695" 
d="M94 123h398q-150 78 -239 239t-89 355q0 145 50 278.5t138 235t217.5 162.5t278.5 61q150 0 279.5 -61t218 -162.5t138.5 -235t50 -278.5q0 -193 -89.5 -354.5t-240.5 -239.5h398l-11 -123h-671v102q216 59 347.5 226t131.5 389q0 114 -39.5 223.5t-109 196t-174.5 139.5
t-228 53t-228 -53t-174.5 -139.5t-109 -196t-39.5 -223.5q0 -222 132 -389t347 -226v-102h-672z" />
    <glyph glyph-name="uni03BC" unicode="&#x3bc;" horiz-adv-x="1239" 
d="M193 1024h129v-602q1 -168 56.5 -244t164.5 -76q104 0 207 57.5t165 135.5v729h132v-1024h-132v168q-62 -75 -173 -131.5t-218 -56.5q-119 0 -202 71v-551h-129v1524z" />
    <glyph glyph-name="pi" unicode="&#x3c0;" horiz-adv-x="1142" 
d="M0 907v117h1143l-10 -117h-197v-907h-131v907h-469v-907h-129v907h-207z" />
    <glyph glyph-name="Wgrave" unicode="&#x1e80;" horiz-adv-x="1964" 
d="M35 1434h141l361 -1147h2l395 1147v2h98v-2l395 -1147h3l360 1147h141v-13l-454 -1423h-86l-408 1196h-2l-408 -1196h-86l-452 1423v13zM684 1874v16h141l215 -315v-14h-116z" />
    <glyph glyph-name="wgrave" unicode="&#x1e81;" horiz-adv-x="1484" 
d="M375 -4l-338 1016v12h135l252 -780h2l260 780h115l258 -780h2l252 780h135v-12l-336 -1016h-88l-279 817h-4l-280 -817h-86zM446 1534v16h144l213 -315v-14h-117z" />
    <glyph glyph-name="Wacute" unicode="&#x1e82;" horiz-adv-x="1964" 
d="M35 1434h141l361 -1147h2l395 1147v2h98v-2l395 -1147h3l360 1147h141v-13l-454 -1423h-86l-408 1196h-2l-406 -1196h-88l-452 1423v13zM924 1575l215 315h141v-16l-240 -313h-116v14z" />
    <glyph glyph-name="wacute" unicode="&#x1e83;" horiz-adv-x="1484" 
d="M37 1012v12h135l252 -780h2l260 780h115l258 -780h2l252 780h135v-12l-336 -1016h-88l-279 817h-4l-280 -817h-86zM682 1221v14l213 315h143v-16l-239 -313h-117z" />
    <glyph glyph-name="Wdieresis" unicode="&#x1e84;" horiz-adv-x="1966" 
d="M35 1421v13h141l361 -1147h2l395 1147v2h98v-2l395 -1147h3l360 1147h141v-13l-452 -1423h-88l-408 1196h-2l-408 -1196h-86zM1165 1614q-43 0 -74.5 31t-31.5 75q0 42 32 74.5t74 32.5t74.5 -32.5t32.5 -74.5q0 -44 -32 -75t-75 -31zM799 1614q-43 0 -75 31t-32 75
q0 42 32.5 74.5t74.5 32.5q41 0 72.5 -32.5t31.5 -74.5q0 -44 -31 -75t-73 -31z" />
    <glyph glyph-name="wdieresis" unicode="&#x1e85;" horiz-adv-x="1484" 
d="M375 -4l-338 1016v12h135l252 -780h2l260 780h113l260 -780h2l252 780h135v-12l-336 -1016h-88l-279 817h-4l-280 -817h-86zM924 1307q-43 0 -74 30.5t-31 73.5t31 75t74 32t74.5 -32t31.5 -75t-31.5 -73.5t-74.5 -30.5zM557 1307q-43 0 -73.5 30.5t-30.5 73.5
q0 42 31 74.5t73 32.5q41 0 74 -33t33 -74q0 -42 -32.5 -73t-74.5 -31z" />
    <glyph glyph-name="Ygrave" unicode="&#x1ef2;" horiz-adv-x="1142" 
d="M506 649l-471 772v13h139l397 -648l398 648h139v-13l-471 -772v-649h-131v649zM301 1874v16h143l213 -315v-14h-116z" />
    <glyph glyph-name="ygrave" unicode="&#x1ef3;" horiz-adv-x="1024" 
d="M442 6l-405 1006v12h137l338 -848h2l338 848h135v-12l-502 -1245q-27 -68 -52.5 -113.5t-61.5 -85.5t-85 -59t-112 -19q-31 0 -43 2l-49 127q25 -6 76 -6q45 0 77.5 13.5t57 46t39.5 63t37 88.5zM244 1534v16h141l215 -315v-14h-117z" />
    <glyph glyph-name="endash" unicode="&#x2013;" horiz-adv-x="1183" 
d="M1083 596h-983v121h983v-121z" />
    <glyph glyph-name="emdash" unicode="&#x2014;" horiz-adv-x="1673" 
d="M1573 596h-1473v121h1473v-121z" />
    <glyph glyph-name="uni2015" unicode="&#x2015;" horiz-adv-x="1183" 
d="M1083 596h-983v121h983v-121z" />
    <glyph glyph-name="quoteleft" unicode="&#x2018;" horiz-adv-x="483" 
d="M369 1475l-129 -539h-131v12l143 527h117z" />
    <glyph glyph-name="quoteright" unicode="&#x2019;" horiz-adv-x="483" 
d="M115 934l127 541h133v-13l-146 -528h-114z" />
    <glyph glyph-name="quotesinglbase" unicode="&#x201a;" horiz-adv-x="505" 
d="M76 -358l129 538h131v-12l-143 -526h-117z" />
    <glyph glyph-name="quotedblleft" unicode="&#x201c;" horiz-adv-x="770" 
d="M109 948l143 527h117l-129 -541h-131v14zM526 934h-131v14l146 527h114z" />
    <glyph glyph-name="quotedblright" unicode="&#x201d;" horiz-adv-x="768" 
d="M395 936l129 539h131v-13l-143 -526h-117zM109 936l129 539h131v-13l-146 -526h-114z" />
    <glyph glyph-name="quotedblbase" unicode="&#x201e;" horiz-adv-x="796" 
d="M369 -358l129 538h131v-12l-144 -526h-116zM82 -358l129 538h131v-12l-143 -526h-117z" />
    <glyph glyph-name="dagger" unicode="&#x2020;" horiz-adv-x="751" 
d="M311 963h-311v122h311v349h129v-349h312v-122h-312v-181l-10 -1280h-108l-11 1278v183z" />
    <glyph glyph-name="daggerdbl" unicode="&#x2021;" horiz-adv-x="796" 
d="M23 963v122h311v349h129v-349h311v-122h-311v-422h311v-123h-313v-916h-125v916h-313v123h311v422h-311z" />
    <glyph glyph-name="bullet" unicode="&#x2022;" horiz-adv-x="425" 
d="M86 696q0 51 37.5 89t89.5 38q51 0 89 -38t38 -89q0 -53 -37.5 -90t-89.5 -37q-53 0 -90 36.5t-37 90.5z" />
    <glyph glyph-name="ellipsis" unicode="&#x2026;" horiz-adv-x="1112" 
d="M158 84q0 -44 30 -74t74 -30q45 0 76 30t31 74t-31.5 75t-75.5 31t-74 -31t-30 -75zM453 84q0 44 30 75t74 31t75.5 -31t31.5 -75t-31 -74t-76 -30q-44 0 -74 30t-30 74zM743 84q0 44 31.5 75t75.5 31q43 0 74.5 -31t31.5 -75t-31.5 -74t-74.5 -30q-45 0 -76 30t-31 74z
" />
    <glyph glyph-name="perthousand" unicode="&#x2030;" horiz-adv-x="2504" 
d="M420 721q-140 0 -241 106t-101 260t101 260.5t241 106.5q141 0 242.5 -106.5t101.5 -260.5t-101.5 -260t-242.5 -106zM420 834q99 0 164 74.5t65 178.5t-65 178t-164 74q-98 0 -164 -74.5t-66 -177.5t66 -178t164 -75zM436 -16h-131v14l950 1434h131v-15zM1282 -20
q-140 0 -241 106t-101 260t101 260.5t241 106.5t242 -107t102 -260t-102 -259.5t-242 -106.5zM1282 92q99 0 165 75t66 179q0 103 -66 177.5t-165 74.5q-98 0 -163.5 -74.5t-65.5 -177.5t65.5 -178.5t163.5 -75.5zM2073 -20q-140 0 -241 106t-101 260t101 260.5t241 106.5
t242 -107t102 -260t-102 -259.5t-242 -106.5zM2073 92q98 0 164.5 75.5t66.5 178.5t-66.5 177.5t-164.5 74.5t-164 -74.5t-66 -177.5t66 -178.5t164 -75.5z" />
    <glyph glyph-name="guilsinglleft" unicode="&#x2039;" horiz-adv-x="616" 
d="M57 522v58l338 432l103 -70l-305 -389l305 -395l-105 -70z" />
    <glyph glyph-name="guilsinglright" unicode="&#x203a;" horiz-adv-x="616" 
d="M559 580v-58l-336 -434l-106 70l307 395l-305 389l102 70z" />
    <glyph glyph-name="uni203D" unicode="&#x203d;" horiz-adv-x="512" 
 />
    <glyph glyph-name="fraction" unicode="&#x2044;" horiz-adv-x="1083" 
d="M131 -16h-131v14l952 1434h131v-15z" />
    <glyph glyph-name="lira" unicode="&#x20a4;" horiz-adv-x="1062" 
d="M33 829v101l225 71v433h131v-390l377 121v-102l-377 -121v-203l377 121v-102l-377 -121v-512q224 0 338 89.5t129 283.5h131q-19 -258 -166.5 -378t-431.5 -120h-131v594l-225 -72v103l225 71v205z" />
    <glyph glyph-name="Euro" unicode="&#x20ac;" horiz-adv-x="1323" 
d="M135 809h-143v98h158q48 246 215.5 396.5t431.5 150.5q229 0 405 -108l-20 -136q-162 119 -371 119q-214 0 -346 -116t-178 -306h463v-98h-480q-4 -62 -4 -92q0 -32 4 -90h480v-99h-463q44 -191 177 -307.5t347 -116.5q207 0 389 125l2 -149q-185 -100 -405 -100
q-264 0 -431.5 150.5t-215.5 397.5h-158v99h143q-4 58 -4 90q0 30 4 92z" />
    <glyph glyph-name="uni20BA" unicode="&#x20ba;" horiz-adv-x="1062" 
d="M33 829v101l225 71v433h131v-390l377 121v-102l-377 -121v-203l377 121v-102l-377 -121v-512q224 0 338 89.5t129 283.5h129q-17 -258 -164.5 -378t-431.5 -120h-131v594l-225 -72v103l225 71v205z" />
    <glyph glyph-name="uni2113" unicode="&#x2113;" horiz-adv-x="880" 
d="M35 496l158 75v510q0 182 79.5 277.5t231.5 95.5q150 0 228.5 -91t78.5 -253q0 -187 -134 -331.5t-386 -266.5v-158q0 -145 52 -213.5t161 -68.5q74 0 124 15.5t113 53.5v-98q-107 -63 -237 -63q-153 0 -232 95t-79 279v111l-158 -76v107zM291 618q422 202 422 492
q0 252 -209 252q-213 0 -213 -281v-463z" />
    <glyph glyph-name="trademark" unicode="&#x2122;" horiz-adv-x="1130" 
d="M453 1434h100l219 -467l219 467h101v-613h-84v467l-217 -467h-37l-217 467v-467h-84v613zM-66 1434h445l-4 -82h-168v-531h-84v531h-189v82z" />
    <glyph glyph-name="Omega" unicode="&#x2126;" horiz-adv-x="1695" 
d="M94 123h398q-150 78 -239 239t-89 355q0 145 50 278.5t138 235t217.5 162.5t278.5 61q150 0 279.5 -61t218 -162.5t138.5 -235t50 -278.5q0 -193 -89.5 -354.5t-240.5 -239.5h398l-11 -123h-671v102q214 54 346.5 224t132.5 391q0 114 -39.5 223.5t-109 196t-174.5 139.5
t-228 53t-228 -53t-174.5 -139.5t-109 -196t-39.5 -223.5q0 -219 133 -390t346 -225v-102h-672z" />
    <glyph glyph-name="estimated" unicode="&#x212e;" horiz-adv-x="1652" 
d="M94 717q0 150 58.5 287.5t156.5 237.5t234 159t284 59t284 -59t234.5 -159t157 -237.5t58.5 -287.5v-41h-1276v-309q36 -56 84 -107.5t115 -101t156.5 -79.5t186.5 -30q173 0 315 68.5t232 169.5l60 -66q-259 -248 -607 -248q-148 0 -284 59t-234 158.5t-156.5 237.5
t-58.5 289zM285 752h1079v323q-29 43 -60.5 81.5t-82 82t-105.5 74t-131 51t-158 20.5q-79 0 -154.5 -21t-133 -54t-109.5 -76.5t-86 -84t-59 -81.5v-315z" />
    <glyph glyph-name="partialdiff" unicode="&#x2202;" horiz-adv-x="1146" 
d="M1047 657q0 -210 -48.5 -358.5t-158.5 -233.5t-277 -85q-216 0 -337.5 128t-121.5 341q0 198 117.5 314t306.5 116q116 0 215.5 -38t171.5 -98q0 104 -14.5 191.5t-46.5 161.5t-80.5 125t-118.5 79.5t-159 28.5q-167 0 -320 -108l-10 127q156 106 340 106
q142 0 247 -55.5t169 -161.5t94.5 -250t30.5 -330zM915 612q-72 68 -165.5 105t-194.5 37q-150 0 -233.5 -82t-83.5 -232t84.5 -243t248.5 -93q115 0 194 68.5t114.5 180.5t35.5 259z" />
    <glyph glyph-name="Delta" unicode="&#x2206;" horiz-adv-x="1363" 
d="M219 125h926l-463 1141zM35 0v14l581 1420h132l583 -1420v-14h-1296z" />
    <glyph glyph-name="product" unicode="&#x220f;" horiz-adv-x="1409" 
d="M203 1434h991v-1784h-131v1663h-729v-1663h-131v1784z" />
    <glyph glyph-name="summation" unicode="&#x2211;" horiz-adv-x="1105" 
d="M66 1409v25h956v-121h-756l473 -703l-481 -839h780l-14 -121h-958v24l530 936z" />
    <glyph glyph-name="minus" unicode="&#x2212;" horiz-adv-x="1146" 
d="M1047 594h-947v123h947v-123z" />
    <glyph glyph-name="uni2215" unicode="&#x2215;" horiz-adv-x="1083" 
d="M131 -16h-131v14l952 1434h131v-15z" />
    <glyph glyph-name="uni2219" unicode="&#x2219;" horiz-adv-x="491" 
d="M119 696q0 51 37.5 89t89.5 38q51 0 89 -38t38 -89q0 -53 -37.5 -90t-89.5 -37q-53 0 -90 36.5t-37 90.5z" />
    <glyph glyph-name="radical" unicode="&#x221a;" horiz-adv-x="1329" 
d="M63 786h283l236 -550h2l561 1329h141v-13l-659 -1554h-88l-277 645h-199v143z" />
    <glyph glyph-name="infinity" unicode="&#x221e;" horiz-adv-x="1669" 
d="M764 676q-30 48 -50.5 79.5t-53.5 72t-63 63.5t-69.5 40t-81.5 17q-118 0 -184.5 -77.5t-66.5 -196.5q0 -118 67 -196.5t184 -78.5q31 0 59.5 7.5t50 16.5t45.5 30t37.5 34t35 44.5t30 45t31 51t29.5 48.5zM836 756q25 43 47.5 76t61 77t77.5 72.5t93.5 49t113.5 20.5
q158 0 257 -106t99 -271t-99 -271t-257 -106q-44 0 -86 11.5t-74.5 27.5t-66.5 44t-55 49t-48 56.5t-39 53t-33 49.5q-68 -108 -105 -150q-122 -141 -280 -141t-258 106t-100 271t100 271t258 106q220 0 394 -295zM901 678q72 -120 101 -157q95 -122 221 -122
q117 0 184.5 79t67.5 196q0 118 -67 196t-185 78q-52 0 -99.5 -22.5t-88 -65t-70.5 -83.5t-64 -99z" />
    <glyph glyph-name="integral" unicode="&#x222b;" horiz-adv-x="661" 
d="M225 -233v1542q0 75 23.5 129.5t64.5 83.5t88 42t103 13q72 0 160 -23v-120q-83 22 -142 22q-168 0 -168 -156v-1540q0 -76 -23.5 -130.5t-64 -84t-87.5 -42.5t-103 -13q-65 0 -160 25v120q73 -22 143 -22q166 0 166 154z" />
    <glyph glyph-name="approxequal" unicode="&#x2248;" horiz-adv-x="899" 
d="M451 903q105 -67 165 -67q43 0 81 22t89 74l29 -96q-45 -52 -91.5 -79.5t-107.5 -27.5q-83 0 -165 55q-60 37 -95.5 52.5t-72.5 15.5q-43 0 -81 -22t-89 -74l-29 96q95 106 199 106q83 0 168 -55zM451 522q103 -67 165 -67q43 0 81 22t89 74l29 -96q-46 -51 -92 -79
t-107 -28q-83 0 -165 55q-57 37 -93.5 52.5t-74.5 15.5q-43 0 -81 -22t-89 -74l-29 96q93 107 199 107q85 0 168 -56z" />
    <glyph glyph-name="notequal" unicode="&#x2260;" horiz-adv-x="1032" 
d="M541 807h-441v113h482l108 276h101l-109 -276h250v-113h-291l-121 -309h412v-113h-455l-108 -283h-101l109 283h-277v113h320z" />
    <glyph glyph-name="lessequal" unicode="&#x2264;" horiz-adv-x="901" 
d="M18 713l783 374v-157l-600 -285v-2l600 -287v-157l-783 374v140zM16 125h787v-125h-787v125z" />
    <glyph glyph-name="greaterequal" unicode="&#x2265;" horiz-adv-x="901" 
d="M100 199v157l600 287v2l-600 285v157l783 -374v-140zM885 0h-787l2 125h785v-125z" />
    <glyph glyph-name="lozenge" unicode="&#x25ca;" horiz-adv-x="1226" 
d="M137 717l475 -549l478 549l-478 551zM-14 682v70l592 682h69l594 -682v-70l-594 -682h-69z" />
    <glyph glyph-name="zero.numr" horiz-adv-x="811" 
d="M174 1225q0 -101 24.5 -180.5t78 -130t129.5 -50.5t129.5 50.5t77.5 130t24 180.5q0 152 -59 251t-172 99t-172.5 -99t-59.5 -251zM53 1225q0 135 38 241t119.5 171t195.5 65t195 -65t119 -171t38 -241q0 -137 -38 -245t-119 -175.5t-195 -67.5t-195.5 67.5t-119.5 176
t-38 244.5z" />
    <glyph glyph-name="one.numr" horiz-adv-x="811" 
d="M715 752h-619v118h252v674l-246 -59v123l306 80h59v-818h248v-118z" />
    <glyph glyph-name="two.numr" horiz-adv-x="811" 
d="M82 752v104q103 64 180.5 122.5t147 127t106.5 142t37 147.5q0 80 -45 133t-141 53q-63 0 -131.5 -22.5t-124.5 -61.5v121q57 39 131 61.5t147 22.5q142 0 213.5 -80.5t71.5 -204.5q0 -58 -15 -114t-47 -108t-62.5 -92.5t-81 -88.5t-81.5 -74.5t-84 -69.5h420l-6 -118
h-635z" />
    <glyph glyph-name="three.numr" horiz-adv-x="811" 
d="M692 1608l-196 -295q107 -24 168 -91t61 -178q0 -132 -86.5 -219.5t-243.5 -87.5q-151 0 -280 82l-4 129q129 -84 260 -84q116 0 174.5 53.5t58.5 129.5q0 86 -70 139t-196 53h-10v10l213 320h-424l6 119h569v-80z" />
    <glyph glyph-name="four.numr" horiz-adv-x="811" 
d="M80 981l-23 84l318 623h135l-303 -590h246v248h114v-248h178l-10 -117h-168v-229h-121v229h-366z" />
    <glyph glyph-name="five.numr" horiz-adv-x="811" 
d="M102 815l-12 133q134 -84 285 -84q105 0 157 46.5t52 127.5q0 76 -44 119t-130 43q-100 0 -238 -35h-31l19 523h506l-9 -119h-381l-12 -283q111 29 182 29q135 0 198 -72t63 -190q0 -147 -87 -231.5t-239 -84.5q-149 0 -279 78z" />
    <glyph glyph-name="six.numr" horiz-adv-x="811" 
d="M100 1186q0 516 353 516q126 0 221 -70l-6 -123q-108 74 -209 74q-238 0 -238 -342q96 88 221 88q122 0 196.5 -75t74.5 -205q0 -138 -80 -225t-219 -87q-157 0 -235.5 120.5t-78.5 328.5zM221 1126q0 -116 50.5 -195t140.5 -79q89 0 135.5 51t46.5 137q0 79 -47.5 129
t-126.5 50q-113 0 -199 -93z" />
    <glyph glyph-name="seven.numr" horiz-adv-x="811" 
d="M301 752h-123l414 815h-494l8 121h615v-111z" />
    <glyph glyph-name="eight.numr" horiz-adv-x="811" 
d="M406 1176q-77 0 -134 -47t-57 -119q0 -71 52.5 -116.5t138.5 -45.5q84 0 136 45.5t52 116.5q0 72 -56 119t-132 47zM406 1595q-80 0 -124 -44t-44 -101q0 -64 48.5 -108t119.5 -44t118 44t47 108q0 57 -43 101t-122 44zM406 737q-141 0 -225.5 73t-84.5 187q0 58 23 105
t57.5 74.5t60.5 41.5t46 19v2q-17 5 -40 18.5t-51.5 38.5t-47.5 67t-19 93q0 100 74 173t207 73q132 0 205 -73t73 -173q0 -50 -19 -92.5t-47.5 -67.5t-50.5 -38.5t-39 -18.5v-2q20 -5 45.5 -19t59.5 -41.5t57 -74.5t23 -105q0 -114 -84 -187t-223 -73z" />
    <glyph glyph-name="nine.numr" horiz-adv-x="811" 
d="M715 1260q0 -121 -20 -215t-61.5 -164t-110 -107t-161.5 -37q-123 0 -223 70l8 123q108 -74 207 -74q240 0 240 346q-94 -86 -221 -86q-123 0 -198 75.5t-75 205.5q0 138 79.5 221.5t219.5 83.5q158 0 237 -117.5t79 -324.5zM594 1319q0 113 -51 190.5t-142 77.5
q-89 0 -134.5 -48.5t-45.5 -135.5q0 -78 47 -128t127 -50q108 0 199 94z" />
    <glyph glyph-name="N.alt" horiz-adv-x="1581" 
d="M336 0h-133v1434h141l901 -1219v1219h131v-1434h-141l-899 1217v-1217z" />
    <glyph glyph-name="K.alt" horiz-adv-x="1296" 
d="M336 0h-133v1434h133v-740h2l719 740h170v-13l-572 -592l594 -817v-12h-157l-533 731l-223 -229v-502z" />
    <glyph glyph-name="M.alt" horiz-adv-x="1894" 
d="M336 0h-133v1434h176l567 -1256h2l568 1256h176v-1434h-131v1196l-543 -1196h-139l-543 1196v-1196z" />
    <glyph glyph-name="V.alt" horiz-adv-x="1314" 
d="M18 1421v13h138l499 -1246h4l500 1246h137v-13l-573 -1421h-131z" />
    <glyph glyph-name="W.alt" horiz-adv-x="1972" 
d="M471 0l-436 1421v13h135l365 -1196h4l381 1196h133l383 -1196h2l364 1196h137v-13l-438 -1421h-129l-387 1206l-385 -1206h-129z" />
    <glyph glyph-name="k.alt" horiz-adv-x="1042" 
d="M322 0h-129v1565h129v-1016h6l483 475h156v-12l-389 -387l421 -613v-12h-145l-369 532l-163 -161v-371z" />
    <glyph glyph-name="v.alt" horiz-adv-x="1011" 
d="M444 0l-407 1012v12h133l334 -836h4l332 836h135v-12l-408 -1012h-123z" />
    <glyph glyph-name="w.alt" horiz-adv-x="1345" 
d="M293 0l-316 1012v12h132l247 -827h2l252 827h125l252 -827h4l248 827h129v-12l-315 -1012h-125l-254 815h-2l-252 -815h-127z" />
    <glyph glyph-name="Z.alt" horiz-adv-x="1275" 
d="M94 0v117l883 1194h-836v123h1002v-121l-881 -1190h918l-11 -123h-1075z" />
    <glyph glyph-name="a.alt" 
d="M555 -20q-141 0 -249.5 75t-164 195t-55.5 262q0 106 33 202t92.5 169.5t150.5 117t199 43.5q114 0 199 -37t135 -85v102h131v-1024h-131v131q-164 -151 -340 -151zM217 512q0 -110 42.5 -202.5t128.5 -150t200 -57.5q157 0 307 138v557q-51 49 -128.5 87t-178.5 38
q-114 0 -200 -58t-128.5 -150.5t-42.5 -201.5z" />
    <glyph glyph-name="z.alt" horiz-adv-x="968" 
d="M879 117l-11 -117h-776v102l604 805h-575v117h741v-106l-598 -801h615z" />
    <glyph glyph-name="ampersand.alt" horiz-adv-x="1509" 
d="M90 328q0 51 11 96.5t28 80t45.5 66.5t57 54.5t68.5 45.5t73.5 39t79.5 35q-56 151 -56 306q0 184 90 292.5t236 110.5q144 -1 223.5 -83t79.5 -224q0 -55 -13 -103.5t-32.5 -86t-53 -72t-64.5 -59t-78.5 -50.5t-82.5 -42.5t-88 -39.5q114 -241 330 -401q98 143 98 364
v21h344v-117h-231q-12 -192 -113 -334q193 -110 414 -110v-117q-258 0 -493 133q-166 -153 -428 -153q-195 0 -320 89.5t-125 258.5zM496 641q-64 -28 -108.5 -55t-85.5 -64.5t-62 -85t-21 -106.5q0 -115 87.5 -174.5t232.5 -59.5q191 0 321 105q-237 173 -364 440zM573 793
q60 25 100.5 45t86.5 51.5t73.5 65t45.5 81.5t18 105q0 91 -43 143.5t-129 52.5q-93 1 -146 -77.5t-53 -210.5q0 -123 47 -256z" />
    <glyph glyph-name="agrave.alt" 
d="M555 -20q-141 0 -249.5 75t-164 195t-55.5 262q0 106 33 202t92.5 169.5t150.5 117t199 43.5q114 0 199 -37t135 -85v102h131v-1024h-131v131q-164 -151 -340 -151zM588 922q-114 0 -200 -57.5t-128.5 -150t-42.5 -202.5t42.5 -202.5t128.5 -150t200 -57.5q157 0 307 138
v557q-51 49 -128.5 87t-178.5 38zM348 1534v16h144l215 -315v-14h-117z" />
    <glyph glyph-name="aacute.alt" 
d="M555 -20q-141 0 -249.5 75t-164 195t-55.5 262q0 106 33 202t92.5 169.5t150.5 117t199 43.5q114 0 199 -37t135 -85v102h131v-1024h-131v131q-164 -151 -340 -151zM588 922q-114 0 -200 -57.5t-128.5 -150t-42.5 -202.5t42.5 -202.5t128.5 -150t200 -57.5q157 0 307 138
v557q-51 49 -128.5 87t-178.5 38zM604 1221h-117v14l213 315h144v-16z" />
    <glyph glyph-name="acircumflex.alt" 
d="M555 -20q-141 0 -249.5 75t-164 195t-55.5 262q0 106 33 202t92.5 169.5t150.5 117t199 43.5q114 0 199 -37t135 -85v102h131v-1024h-131v131q-164 -151 -340 -151zM588 922q-114 0 -200 -57.5t-128.5 -150t-42.5 -202.5t42.5 -202.5t128.5 -150t200 -57.5q157 0 307 138
v557q-51 49 -128.5 87t-178.5 38zM322 1192v14l221 344h121l221 -344v-14h-123l-158 242h-2l-158 -242h-122z" />
    <glyph glyph-name="atilde.alt" 
d="M86 512q0 106 33 202t92.5 169.5t150.5 117t199 43.5q114 0 199 -37t135 -85v102h131v-1024h-131v131q-164 -151 -340 -151q-141 0 -249.5 75t-164 195t-55.5 262zM217 512q0 -110 42.5 -202.5t128.5 -150t200 -57.5q157 0 307 138v557q-51 49 -128.5 87t-178.5 38
q-114 0 -200 -57.5t-128.5 -150t-42.5 -202.5zM295 1262q-26 130 10.5 197t120.5 67q71 0 156 -62l104 -80q29 -26 66 -26t48 30t-5 121h106q25 -129 -11.5 -195.5t-121.5 -66.5q-69 0 -154 62l-104 80q-33 26 -66 26q-37 0 -48 -30.5t3 -122.5h-104z" />
    <glyph glyph-name="adieresis.alt" 
d="M86 512q0 106 33 202t92.5 169.5t150.5 117t199 43.5q114 0 199 -37t135 -85v102h131v-1024h-131v131q-164 -151 -340 -151q-141 0 -249.5 75t-164 195t-55.5 262zM588 922q-114 0 -200 -57.5t-128.5 -150t-42.5 -202.5t42.5 -202.5t128.5 -150t200 -57.5q157 0 307 138
v557q-51 49 -128.5 87t-178.5 38zM778 1307q-43 0 -74.5 30.5t-31.5 73.5t31.5 75t74.5 32t75 -32t32 -75q0 -42 -32 -73t-75 -31zM412 1307q-43 0 -75 31t-32 73t32.5 74.5t74.5 32.5q41 0 73.5 -33t32.5 -74q0 -42 -32 -73t-74 -31z" />
    <glyph glyph-name="aring.alt" 
d="M555 -20q-141 0 -249.5 75t-164 195t-55.5 262q0 106 33 202t92.5 169.5t150.5 117t199 43.5q114 0 199 -37t135 -85v102h131v-1024h-131v131q-164 -151 -340 -151zM217 512q0 -110 42.5 -202.5t128.5 -150t200 -57.5q157 0 307 138v557q-51 49 -128.5 87t-178.5 38
q-114 0 -200 -57.5t-128.5 -150t-42.5 -202.5zM590 1188q-85 0 -144 58t-59 143t59 143.5t144 58.5q84 0 143.5 -59t59.5 -143t-59.5 -142.5t-143.5 -58.5zM590 1499q-46 0 -77.5 -32.5t-31.5 -77.5q0 -48 31 -80.5t78 -32.5t77.5 32.5t30.5 80.5q0 45 -31 77.5t-77 32.5z
" />
    <glyph glyph-name="amacron.alt" 
d="M555 -20q-141 0 -249.5 75t-164 195t-55.5 262q0 106 33 202t92.5 169.5t150.5 117t199 43.5q114 0 199 -37t135 -85v102h131v-1024h-131v131q-164 -151 -340 -151zM588 922q-114 0 -200 -57.5t-128.5 -150t-42.5 -202.5t42.5 -202.5t128.5 -150t200 -57.5q157 0 307 138
v557q-51 49 -128.5 87t-178.5 38zM340 1300v121h514v-121h-514z" />
    <glyph glyph-name="abreve.alt" 
d="M86 512q0 106 33 202t92.5 169.5t150.5 117t199 43.5q114 0 199 -37t135 -85v102h131v-1024h-131v131q-164 -151 -340 -151q-141 0 -249.5 75t-164 195t-55.5 262zM588 922q-114 0 -200 -57.5t-128.5 -150t-42.5 -202.5t42.5 -202.5t128.5 -150t200 -57.5q157 0 307 138
v557q-51 49 -128.5 87t-178.5 38zM319 1509h113q12 -83 54.5 -128.5t109.5 -45.5t109 46t53 128h112q-22 -136 -93 -209t-181 -73q-112 0 -183.5 72.5t-93.5 209.5z" />
    <glyph glyph-name="aogonek.alt" 
d="M86 512q0 106 33 202t92.5 169.5t150.5 117t199 43.5q114 0 199 -37t135 -85v102h131v-1024q-240 -158 -240 -301q0 -47 28.5 -74.5t88.5 -27.5q59 0 129 22l-14 -106q-70 -21 -129 -21q-98 0 -155.5 52t-57.5 143q0 90 61 172t158 149v123q-164 -151 -340 -151
q-141 0 -249.5 75t-164 195t-55.5 262zM217 512q0 -110 42.5 -202.5t128.5 -150t200 -57.5q157 0 307 138v557q-51 49 -128.5 87t-178.5 38q-114 0 -200 -58t-128.5 -150.5t-42.5 -201.5z" />
    <glyph glyph-name="aringacute.alt" 
d="M555 -20q-141 0 -249.5 75t-164 195t-55.5 262q0 106 33 202t92.5 169.5t150.5 117t199 43.5q114 0 199 -37t135 -85v102h131v-1024h-131v131q-164 -151 -340 -151zM588 922q-114 0 -200 -57.5t-128.5 -150t-42.5 -202.5t42.5 -202.5t128.5 -150t200 -57.5q157 0 307 138
v557q-51 49 -128.5 87t-178.5 38zM592 1188q-85 0 -143 58t-58 143t58 143.5t143 58.5t144 -58.5t59 -143.5t-59 -143t-144 -58zM639 1657h-119v14l215 316h144v-17zM592 1499q-46 0 -77.5 -32.5t-31.5 -77.5q0 -48 31 -80.5t78 -32.5t78.5 32.5t31.5 80.5q0 45 -31.5 77.5
t-78.5 32.5z" />
    <glyph glyph-name="Wcircumflex.alt" horiz-adv-x="1972" 
d="M471 0l-438 1421v13h137l365 -1196h2l383 1196h133l381 -1196h4l364 1196h135v-13l-436 -1421h-129l-387 1206l-385 -1206h-129zM705 1565l210 325h144l211 -325v-17h-123l-158 242h-4l-158 -242h-122v17z" />
    <glyph glyph-name="wcircumflex.alt" horiz-adv-x="1464" 
d="M352 0l-315 1012v12h129l250 -827h2l252 827h125l252 -827h2l249 827h129v-12l-315 -1012h-125l-254 815h-2l-252 -815h-127zM449 1206l221 344h123l221 -344v-14h-123l-158 242h-4l-158 -242h-122v14z" />
    <glyph glyph-name="Wgrave.alt" horiz-adv-x="1970" 
d="M471 0l-438 1421v13h137l365 -1196h2l383 1196h133l381 -1196h4l364 1196h135v-13l-436 -1421h-129l-387 1206l-385 -1206h-129zM686 1890h143l215 -315v-14h-118l-240 313v16z" />
    <glyph glyph-name="wgrave.alt" horiz-adv-x="1464" 
d="M37 1024h129l250 -827h2l252 827h125l252 -827h2l249 827h129v-12l-315 -1012h-125l-254 815h-2l-252 -815h-127l-315 1012v12zM434 1534v16h144l215 -315v-14h-119z" />
    <glyph glyph-name="Wacute.alt" horiz-adv-x="1972" 
d="M471 0l-438 1421v13h137l365 -1196h2l383 1196h133l381 -1196h4l364 1196h135v-13l-436 -1421h-129l-387 1206l-385 -1206h-129zM928 1575l213 315h143v-16l-240 -313h-116v14z" />
    <glyph glyph-name="wacute.alt" horiz-adv-x="1464" 
d="M37 1012v12h129l250 -827h2l252 827h125l252 -827h2l249 827h129v-12l-315 -1012h-125l-254 815h-2l-252 -815h-127zM670 1235l215 315h143v-16l-240 -313h-118v14z" />
    <glyph glyph-name="Wdieresis.alt" horiz-adv-x="1972" 
d="M33 1421v13h137l365 -1196h2l383 1196h133l381 -1196h4l364 1196h135v-13l-436 -1421h-129l-387 1206l-385 -1206h-129zM1063 1720q0 42 32 74.5t74 32.5t74.5 -32.5t32.5 -74.5q0 -44 -32 -75t-75 -31t-74.5 31t-31.5 75zM696 1720q0 42 31.5 74.5t75.5 32.5
q41 0 72.5 -32.5t31.5 -74.5q0 -44 -31 -75t-73 -31q-44 0 -75.5 31t-31.5 75z" />
    <glyph glyph-name="wdieresis.alt" horiz-adv-x="1464" 
d="M352 0l-315 1012v12h129l250 -827h2l252 827h125l252 -827h2l249 827h129v-12l-315 -1012h-125l-254 815h-2l-252 -815h-127zM913 1307q-43 0 -74.5 30.5t-31.5 73.5t31.5 75t74.5 32t75 -32t32 -75q0 -42 -32 -73t-75 -31zM547 1307q-43 0 -75 31t-32 73t32.5 74.5
t74.5 32.5q41 0 73.5 -33t32.5 -74q0 -42 -32 -73t-74 -31z" />
    <glyph glyph-name="Nacute.alt" horiz-adv-x="1581" 
d="M336 0h-131v1434h139l901 -1219v1219h131v-1434h-139l-901 1217v-1217zM688 1561v14l215 315h141v-16l-239 -313h-117z" />
    <glyph glyph-name="uni0145.alt" horiz-adv-x="1581" 
d="M336 0h-133v1434h141l901 -1219v1219h131v-1434h-141l-899 1217v-1217zM776 -508h-121l86 348h123v-14z" />
    <glyph glyph-name="Ncaron.alt" horiz-adv-x="1581" 
d="M203 1434h141l901 -1219v1219h131v-1434h-141l-899 1217v-1217h-133v1434zM506 1864v14h123l157 -231h2l158 231h123v-14l-211 -316h-141z" />
    <glyph glyph-name="Zacute.alt" horiz-adv-x="1275" 
d="M903 1874l-239 -313h-119v14l215 315h143v-16zM94 0v117l883 1194h-836v123h1002v-121l-877 -1190h912l-9 -123h-1075z" />
    <glyph glyph-name="zacute.alt" horiz-adv-x="968" 
d="M772 1534l-240 -313h-118v14l215 315h143v-16zM879 117l-11 -117h-776v102l604 805h-575v117h741v-106l-598 -801h615z" />
    <glyph glyph-name="Zdotaccent.alt" horiz-adv-x="1275" 
d="M547 1720q0 42 31.5 74.5t74.5 32.5q42 0 73.5 -32.5t31.5 -74.5q0 -44 -31 -74t-74 -30q-44 0 -75 30t-31 74zM94 0v117l883 1194h-834v123h1000v-121l-877 -1190h914l-11 -123h-1075z" />
    <glyph glyph-name="zdotaccent.alt" horiz-adv-x="968" 
d="M387 1413q0 42 31.5 73.5t75.5 31.5q42 0 73 -31.5t31 -73.5q0 -44 -30.5 -75t-73.5 -31q-44 0 -75.5 31t-31.5 75zM879 117l-11 -117h-776v102l604 805h-575v117h741v-106l-598 -801h615z" />
    <glyph glyph-name="Zcaron.alt" horiz-adv-x="1275" 
d="M1169 0h-1075v117l883 1194h-836v123h1002v-121l-877 -1190h912zM362 1864v14h123l158 -231h2l158 231h123v-14l-211 -316h-142z" />
    <glyph glyph-name="zcaron.alt" horiz-adv-x="968" 
d="M94 0v102l602 805h-575v117h743v-106l-600 -801h617l-11 -117h-776zM213 1550h123l158 -241h2l157 241h123v-14l-221 -344h-121l-221 344v14z" />
    <glyph glyph-name="uni0136.alt" horiz-adv-x="1296" 
d="M203 0v1434h133v-740h2l719 740h170v-13l-572 -592l594 -817v-12h-157l-533 731l-223 -229v-502h-133zM561 -508l86 348h123v-14l-88 -334h-121z" />
    <glyph glyph-name="uni0137.alt" horiz-adv-x="1042" 
d="M193 0v1565h129v-1016h6l483 475h156v-12l-389 -387l421 -613v-12h-145l-369 532l-163 -161v-371h-129zM569 -508h-120l83 348h125v-14z" />
    <glyph glyph-name="kgreenlandic.alt" horiz-adv-x="1042" 
d="M322 0h-129v1024h129v-475h4l485 475h156v-12l-389 -387l421 -613v-12h-145l-369 532l-163 -161v-371z" />
    <glyph glyph-name="y.alt" horiz-adv-x="1026" 
d="M37 1012v12h137l338 -848h2l338 848h135v-12l-608 -1512h-139l202 504z" />
    <glyph glyph-name="yacute.alt" horiz-adv-x="1026" 
d="M442 4l-405 1008v12h137l338 -848h2l338 848h135v-12l-608 -1512h-139zM541 1221h-117v14l213 315h143v-16z" />
    <glyph glyph-name="ydieresis.alt" horiz-adv-x="1026" 
d="M37 1024h137l338 -848h2l338 848h135v-12l-608 -1512h-139l202 504l-405 1008v12zM696 1307q-44 0 -75 30.5t-31 73.5t31 75t75 32q41 0 73 -32t32 -75q0 -42 -31.5 -73t-73.5 -31zM223 1411q0 42 31.5 74.5t73.5 32.5t74 -32.5t32 -74.5q0 -43 -31.5 -73.5t-74.5 -30.5
t-74 30.5t-31 73.5z" />
    <glyph glyph-name="ycircumflex.alt" horiz-adv-x="1024" 
d="M37 1024h137l338 -848h2l338 848h135v-12l-608 -1512h-139l202 504l-405 1008v12zM354 1192h-123v14l222 344h120l222 -344v-14h-123l-158 242h-2z" />
    <glyph glyph-name="ygrave.alt" horiz-adv-x="1024" 
d="M442 4l-405 1008v12h137l338 -848h2l338 848h135v-12l-608 -1512h-139zM244 1550h141l215 -315v-14h-117l-239 313v16z" />
    <glyph glyph-name="zero.numr.dnom" horiz-adv-x="811" 
d="M174 473q0 -101 24.5 -180.5t78 -129.5t129.5 -50t129.5 50t77.5 129.5t24 180.5q0 152 -59 251t-172 99t-172.5 -99t-59.5 -251zM53 473q0 135 38 241t119.5 171t195.5 65t195 -65t119 -171t38 -241q0 -136 -38 -244.5t-119 -175.5t-195 -67t-195.5 67t-119.5 175.5
t-38 244.5z" />
    <glyph glyph-name="one.numr.dnom" horiz-adv-x="811" 
d="M715 0h-619v119h254v676l-248 -62v123l310 80h57v-817h246v-119z" />
    <glyph glyph-name="two.numr.dnom" horiz-adv-x="811" 
d="M82 0v104q103 64 180.5 122.5t147 127t106.5 142t37 147.5q0 80 -45 133t-141 53q-63 0 -131.5 -22.5t-124.5 -61.5v121q57 39 131 61.5t147 22.5q142 0 213.5 -80t71.5 -204q0 -58 -15 -114t-47 -108t-62.5 -92.5t-81 -88.5t-81.5 -74.5t-84 -69.5h420l-6 -119h-635z
" />
    <glyph glyph-name="three.numr.dnom" horiz-adv-x="811" 
d="M692 856l-196 -295q107 -25 168 -91t61 -177q0 -132 -86.5 -219.5t-243.5 -87.5q-151 0 -280 82l-4 129q129 -84 260 -84q116 0 174.5 53t58.5 129q0 86 -70 139t-196 53h-10v11l213 319h-424l6 119h569v-80z" />
    <glyph glyph-name="four.numr.dnom" horiz-adv-x="811" 
d="M80 229l-23 84l318 623h135l-303 -590h246v248h114v-248h178l-10 -117h-168v-229h-121v229h-366z" />
    <glyph glyph-name="five.numr.dnom" horiz-adv-x="811" 
d="M102 63l-12 134q134 -84 285 -84q105 0 157 46.5t52 127.5q0 76 -44 119t-130 43q-100 0 -238 -35h-31l19 522h506l-9 -119h-381l-12 -282q107 28 182 28q135 0 198 -72t63 -190q0 -146 -87 -230.5t-239 -84.5q-151 0 -279 77z" />
    <glyph glyph-name="six.numr.dnom" horiz-adv-x="811" 
d="M100 434q0 516 353 516q127 0 221 -69l-6 -123q-106 73 -209 73q-238 0 -238 -342q97 89 221 89q122 0 196.5 -75.5t74.5 -205.5q0 -138 -79.5 -224.5t-219.5 -86.5q-157 0 -235.5 120t-78.5 328zM221 375q0 -116 50.5 -195.5t140.5 -79.5q89 0 135.5 51.5t46.5 137.5
q0 79 -47.5 128.5t-126.5 49.5q-113 0 -199 -92z" />
    <glyph glyph-name="seven.numr.dnom" horiz-adv-x="811" 
d="M301 0h-123l414 815h-494l8 121h615v-111z" />
    <glyph glyph-name="eight.numr.dnom" horiz-adv-x="811" 
d="M406 424q-77 0 -134 -47t-57 -119q0 -71 52.5 -116.5t138.5 -45.5q84 0 136 45.5t52 116.5q0 72 -56 119t-132 47zM406 844q-80 0 -124 -44.5t-44 -101.5q0 -63 48 -107t120 -44q71 0 118 43.5t47 107.5q0 57 -43 101.5t-122 44.5zM406 -14q-141 0 -225.5 73t-84.5 187
q0 47 16 87.5t38.5 65.5t51 45t47.5 28.5t34 12.5v2q-17 5 -40 19t-51.5 39t-47.5 67t-19 93q0 100 74 172.5t207 72.5q132 0 205 -72.5t73 -172.5q0 -50 -19 -92.5t-47.5 -68t-50.5 -39t-39 -18.5v-2q15 -4 34 -12.5t47 -28.5t50 -45t38 -65.5t16 -87.5q0 -114 -84 -187
t-223 -73z" />
    <glyph glyph-name="nine.numr.dnom" horiz-adv-x="811" 
d="M715 508q0 -247 -85.5 -384.5t-267.5 -137.5q-125 0 -223 69l8 123q108 -74 207 -74q240 0 240 347q-94 -86 -221 -86q-123 0 -198 75t-75 205q0 138 79.5 221.5t219.5 83.5q158 0 237 -117.5t79 -324.5zM594 567q0 114 -51 191.5t-142 77.5q-89 0 -134.5 -49t-45.5 -136
q0 -78 47 -128t127 -50q108 0 199 94z" />
    <glyph glyph-name="N.alt_" horiz-adv-x="2621" 
d="M203 0v1434h141l901 -1219v1219h139l902 -1219v1219h133v-1434h-142l-901 1217v-1217h-141l-899 1217v-1217h-133z" />
    <glyph glyph-name="f.alt" horiz-adv-x="745" 
d="M49 -434q42 38 66.5 65.5t50.5 71t37.5 101.5t11.5 135v968h-152v117h152v285q0 76 23.5 130.5t64.5 84t88 42.5t103 13q10 0 20 -0.5t17.5 -0.5t16.5 -1.5t14.5 -2t15 -2.5t13 -2.5t14.5 -3t14.5 -3.5t16.5 -4.5t17 -4.5v-120q-73 22 -141 22q-168 0 -168 -153v-279h315
l-10 -117h-305v-975q0 -88 -15.5 -158.5t-45.5 -124t-65 -92.5t-85 -77z" />
    <glyph glyph-name="J.alt" horiz-adv-x="944" 
d="M90 39v133q136 -68 264 -68q155 0 227 87t72 296v822h-397l8 125h520v-963q0 -491 -424 -491q-134 0 -270 59z" />
    <glyph glyph-name="g.alt" horiz-adv-x="1026" 
d="M256 -94q-88 15 -147.5 64t-59.5 128q0 85 66 134t164 59q-81 58 -128 148.5t-47 191.5q0 110 52.5 204.5t146 151.5t205.5 57q62 0 127 -20h371v-117l-213 19q120 -120 120 -295q0 -109 -52 -204t-146 -152.5t-207 -57.5h-123q-91 0 -148 -25t-57 -71t57.5 -72
t147.5 -26h225q190 0 299 -69.5t109 -201.5q0 -133 -110 -204.5t-298 -71.5h-104q-83 0 -154 13.5t-127.5 41t-88.5 74t-32 108.5q0 134 152 193zM508 922q-115 0 -193.5 -86t-78.5 -205q0 -118 78.5 -204.5t193.5 -86.5q116 0 195 86.5t79 204.5q0 119 -78.5 205t-195.5 86
zM236 -252q0 -70 77 -109.5t207 -39.5h80q140 0 213.5 40.5t73.5 112.5q0 70 -72.5 109t-212.5 39h-84q-131 0 -206.5 -41t-75.5 -111z" />
    <glyph glyph-name="gcircumflex.alt" horiz-adv-x="1028" 
d="M256 -94q-88 15 -147.5 64t-59.5 128q0 85 66 134t164 59q-81 58 -128 148.5t-47 191.5q0 110 52.5 204.5t146 151.5t205.5 57q62 0 127 -20h371v-117l-213 19q120 -120 120 -295q0 -109 -52 -204t-146 -152.5t-207 -57.5h-123q-91 0 -148 -25t-57 -71t57.5 -72
t147.5 -26h225q190 0 299 -69.5t109 -201.5q0 -133 -110 -204.5t-298 -71.5h-104q-83 0 -154 13.5t-127.5 41t-88.5 74t-32 108.5q0 134 152 193zM508 922q-115 0 -193.5 -86t-78.5 -205q0 -118 78.5 -204.5t193.5 -86.5q116 0 195 86.5t79 204.5q0 119 -78.5 205t-195.5 86
zM518 -100q-131 0 -206.5 -41t-75.5 -111t77 -109.5t207 -39.5h80q140 0 213.5 40.5t73.5 112.5q0 70 -72.5 109t-212.5 39h-84zM354 1192h-123v14l222 344h120l222 -344v-14h-123l-158 242h-2z" />
    <glyph glyph-name="gbreve.alt" horiz-adv-x="1028" 
d="M256 -94q-88 15 -147.5 64t-59.5 128q0 85 66 134t164 59q-81 58 -128 148.5t-47 191.5q0 110 52.5 204.5t146 151.5t205.5 57q62 0 127 -20h371v-117l-213 19q120 -120 120 -295q0 -109 -52 -204t-146 -152.5t-207 -57.5h-123q-91 0 -148 -25t-57 -71t57.5 -72
t147.5 -26h225q190 0 299 -69.5t109 -201.5q0 -133 -110 -204.5t-298 -71.5h-104q-83 0 -154 13.5t-127.5 41t-88.5 74t-32 108.5q0 134 152 193zM236 631q0 -118 78.5 -204.5t193.5 -86.5q116 0 195 86.5t79 204.5q0 119 -78.5 205t-195.5 86q-115 0 -193.5 -86t-78.5 -205
zM518 -100q-131 0 -206.5 -41t-75.5 -111t77 -109.5t207 -39.5h80q140 0 213.5 40.5t73.5 112.5q0 70 -72.5 109t-212.5 39h-84zM236 1509h112q12 -83 54.5 -128.5t109.5 -45.5q66 0 108.5 46t53.5 128h112q-22 -136 -93 -209t-181 -73q-112 0 -183 72.5t-93 209.5z" />
    <glyph glyph-name="gdotaccent.alt" horiz-adv-x="1028" 
d="M49 98q0 85 66 134t164 59q-81 58 -128 148.5t-47 191.5q0 110 52.5 204.5t146 151.5t205.5 57q62 0 127 -20h371v-117l-213 19q120 -120 120 -295q0 -109 -52 -204t-146 -152.5t-207 -57.5h-123q-91 0 -148 -25t-57 -71t57.5 -72t147.5 -26h225q190 0 299 -69.5
t109 -201.5q0 -133 -110 -204.5t-298 -71.5h-104q-83 0 -154 13.5t-127.5 41t-88.5 74t-32 108.5q0 134 152 193q-88 15 -147.5 64t-59.5 128zM236 631q0 -118 78.5 -204.5t193.5 -86.5q116 0 195 86.5t79 204.5q0 119 -78.5 205t-195.5 86q-115 0 -193.5 -86t-78.5 -205z
M518 -100q-131 0 -206.5 -41t-75.5 -111t77 -109.5t207 -39.5h80q140 0 213.5 40.5t73.5 112.5q0 70 -72.5 109t-212.5 39h-84zM504 1307q-44 0 -74.5 31t-30.5 75q0 42 30.5 73.5t74.5 31.5t75 -31.5t31 -73.5q0 -44 -31 -75t-75 -31z" />
    <glyph glyph-name="uni0123.alt" horiz-adv-x="1028" 
d="M49 98q0 85 66 134t164 59q-81 58 -128 148.5t-47 191.5q0 110 52.5 204.5t146 151.5t205.5 57q62 0 127 -20h371v-117l-213 19q120 -120 120 -295q0 -109 -52 -204t-146 -152.5t-207 -57.5h-123q-91 0 -148 -25t-57 -71t57.5 -72t147.5 -26h225q190 0 299 -69.5
t109 -201.5q0 -133 -110 -204.5t-298 -71.5h-104q-83 0 -154 13.5t-127.5 41t-88.5 74t-32 108.5q0 134 152 193q-88 15 -147.5 64t-59.5 128zM508 922q-115 0 -193.5 -86t-78.5 -205q0 -118 78.5 -204.5t193.5 -86.5q116 0 195 86.5t79 204.5q0 119 -78.5 205t-195.5 86z
M236 -252q0 -70 77 -109.5t207 -39.5h80q140 0 213.5 40.5t73.5 112.5q0 70 -72.5 109t-212.5 39h-84q-131 0 -206.5 -41t-75.5 -111zM580 1223h-125v12l88 334h121z" />
    <glyph glyph-name="Q.alt" horiz-adv-x="1558" 
d="M94 717q0 143 50 276.5t138 235.5t217.5 163.5t278.5 61.5t279 -61.5t218.5 -163.5t138.5 -235.5t50 -276.5t-50 -276.5t-137.5 -235.5t-217.5 -163.5t-279 -61.5t-279 61.5t-218.5 163.5t-138.5 235.5t-50 276.5zM229 717q0 -113 39.5 -222t109 -196.5t174.5 -141
t226 -53.5q98 0 186 35t153.5 95t114 138t73 166.5t24.5 178.5t-24.5 178.5t-73 166.5t-114 137.5t-153.5 94.5t-186 35q-121 0 -226 -53.5t-174.5 -140.5t-109 -196t-39.5 -222zM1360 -358h-758l8 139h758z" />
    <glyph glyph-name="Jcircumflex.alt" horiz-adv-x="944" 
d="M90 172q136 -68 264 -68q155 0 227 88t72 295v822h-397l8 125h520v-961q0 -254 -107.5 -373.5t-316.5 -119.5q-134 0 -270 59v133zM283 1548v17l211 325h141l211 -325v-17h-123l-158 242h-2l-157 -242h-123z" />
    <glyph glyph-name="germandbls.alt" horiz-adv-x="1277" 
d="M1143 1559v-91q0 -154 -29 -274.5t-81 -197.5t-117 -122t-144 -63q87 -7 162.5 -37t135.5 -81.5t95 -131t35 -178.5q0 -180 -112 -291t-314 -112q-131 0 -254 57l-8 135q133 -68 264 -68q138 0 214.5 77t76.5 204q0 155 -120.5 254.5t-311.5 99.5h-12v127q76 0 143.5 32
t123.5 97t89 177.5t33 259.5q-43 1 -179 8.5t-184 7.5q-182 0 -256 -83t-74 -294v-1071h-131v1085q0 257 117.5 375.5t366.5 118.5q52 0 209 -9.5t262 -10.5z" />
    <glyph glyph-name="three.alt" horiz-adv-x="1071" 
d="M549 723q221 0 332.5 -97t111.5 -261q0 -175 -124 -280t-345 -105q-237 0 -426 124l-10 134q212 -134 426 -134q171 0 258.5 73t87.5 192q0 141 -119.5 214.5t-318.5 73.5h-21v127h21q194 0 309 76t115 215q0 50 -16 93.5t-51 82t-99 60.5t-152 22q-212 0 -422 -133
l11 133q78 51 189.5 88t244.5 37q110 0 194.5 -28.5t135 -79.5t75.5 -116.5t25 -143.5q0 -164 -107 -265.5t-325 -101.5z" />
    <glyph glyph-name="one.alt" horiz-adv-x="1038" 
d="M981 0h-907v123h391v1163l-371 -98v129l445 119h59v-1313h383v-123z" />
    <glyph glyph-name="u.alt" horiz-adv-x="1173" 
d="M166 418v606h129v-567q0 -64 8 -115t28 -97t53 -76.5t84.5 -48.5t119.5 -18q84 0 142.5 26t90 76t45 111t13.5 142v567h129v-606q0 -74 -13 -136.5t-44 -119t-78 -96.5t-119.5 -63t-165.5 -23q-116 0 -200 34.5t-131 96.5t-69 138t-22 169z" />
    <glyph glyph-name="ugrave.alt" horiz-adv-x="1212" 
d="M166 418v606h129v-567q0 -64 8 -115t28 -97t53 -76.5t84.5 -48.5t119.5 -18q84 0 142.5 26t90 76t45 111t13.5 142v567h129v-606q0 -74 -13 -136.5t-44 -119t-78 -96.5t-119.5 -63t-165.5 -23q-116 0 -200 34.5t-131 96.5t-69 138t-22 169zM571 1221l-239 313v16h143
l213 -315v-14h-117z" />
    <glyph glyph-name="uacute.alt" horiz-adv-x="1212" 
d="M166 418v606h129v-567q0 -64 8 -115t28 -97t53 -76.5t84.5 -48.5t119.5 -18q84 0 142.5 26t90 76t45 111t13.5 142v567h129v-606q0 -74 -13 -136.5t-44 -119t-78 -96.5t-119.5 -63t-165.5 -23q-116 0 -200 34.5t-131 96.5t-69 138t-22 169zM614 1221h-116v14l213 315h143
v-16z" />
    <glyph glyph-name="ucircumflex.alt" horiz-adv-x="1212" 
d="M166 1024h129v-567q0 -64 8 -115t28 -97t53 -76.5t84.5 -48.5t119.5 -18q84 0 142.5 26t90 76t45 111t13.5 142v567h129v-606q0 -74 -13 -136.5t-44 -119t-78 -96.5t-119.5 -63t-165.5 -23q-116 0 -200 34.5t-131 96.5t-69 138t-22 169v606zM428 1192h-123v14l221 344
h123l221 -344v-14h-125l-155 242h-4z" />
    <glyph glyph-name="udieresis.alt" horiz-adv-x="1212" 
d="M166 418v606h129v-567q0 -64 8 -115t28 -97t53 -76.5t84.5 -48.5t119.5 -18q84 0 142.5 26t90 76t45 111t13.5 142v567h129v-606q0 -74 -13 -136.5t-44 -119t-78 -96.5t-119.5 -63t-165.5 -23q-116 0 -200 34.5t-131 96.5t-69 138t-22 169zM770 1307q-43 0 -74.5 30.5
t-31.5 73.5t31.5 75t74.5 32t75 -32t32 -75q0 -42 -32 -73t-75 -31zM403 1307q-44 0 -75 30.5t-31 73.5q0 42 31.5 74.5t74.5 32.5q41 0 73 -33t32 -74q0 -42 -31.5 -73t-73.5 -31z" />
    <glyph glyph-name="utilde.alt" horiz-adv-x="1212" 
d="M166 1024h129v-567q0 -64 8 -115t28 -97t53 -76.5t84.5 -48.5t119.5 -18q84 0 142.5 26t90 76t45 111t13.5 142v567h129v-606q0 -74 -13 -136.5t-44 -119t-78 -96.5t-119.5 -63t-165.5 -23q-116 0 -200 34.5t-131 96.5t-69 138t-22 169v606zM283 1262q-25 130 11.5 197
t121.5 67q70 0 155 -62l103 -80q33 -26 67 -26q35 0 46 30t-3 121h105q25 -129 -11.5 -195.5t-121.5 -66.5q-69 0 -154 62l-102 80q-36 26 -68 26q-37 0 -48 -30.5t5 -122.5h-106z" />
    <glyph glyph-name="umacron.alt" horiz-adv-x="1212" 
d="M588 -20q-116 0 -200 34.5t-131 96.5t-69 138t-22 169v606h129v-567q0 -64 8 -115t28 -97t53 -76.5t84.5 -48.5t119.5 -18q84 0 142.5 26t90 76t45 111t13.5 142v567h129v-606q0 -74 -13 -136.5t-44 -119t-78 -96.5t-119.5 -63t-165.5 -23zM844 1300h-514v121h514v-121z
" />
    <glyph glyph-name="ubreve.alt" horiz-adv-x="1212" 
d="M588 -20q-116 0 -200 34.5t-131 96.5t-69 138t-22 169v606h129v-567q0 -64 8 -115t28 -97t53 -76.5t84.5 -48.5t119.5 -18q84 0 142.5 26t90 76t45 111t13.5 142v567h129v-606q0 -74 -13 -136.5t-44 -119t-78 -96.5t-119.5 -63t-165.5 -23zM588 1227q-112 0 -183.5 72.5
t-93.5 209.5h113q12 -83 54.5 -128.5t109.5 -45.5q66 0 108.5 46t53.5 128h112q-22 -136 -93 -209t-181 -73z" />
    <glyph glyph-name="uring.alt" horiz-adv-x="1212" 
d="M166 418v606h129v-567q0 -64 8 -115t28 -97t53 -76.5t84.5 -48.5t119.5 -18q84 0 142.5 26t90 76t45 111t13.5 142v567h129v-606q0 -74 -13 -136.5t-44 -119t-78 -96.5t-119.5 -63t-165.5 -23q-116 0 -200 34.5t-131 96.5t-69 138t-22 169zM588 1188q-86 0 -144.5 58
t-58.5 143t58.5 143.5t144.5 58.5q83 0 141.5 -58.5t58.5 -143.5t-58 -143t-142 -58zM588 1499q-48 0 -79.5 -32.5t-31.5 -77.5q0 -48 31 -80.5t80 -32.5q46 0 77 33t31 80q0 45 -31.5 77.5t-76.5 32.5z" />
    <glyph glyph-name="uhungarumlaut.alt" horiz-adv-x="1212" 
d="M588 -20q-116 0 -200 34.5t-131 96.5t-69 138t-22 169v606h129v-567q0 -64 8 -115t28 -97t53 -76.5t84.5 -48.5t119.5 -18q84 0 142.5 26t90 76t45 111t13.5 142v567h129v-606q0 -74 -13 -136.5t-44 -119t-78 -96.5t-119.5 -63t-165.5 -23zM481 1221h-112l182 329h143z
M756 1221h-113l182 329h133v-14z" />
    <glyph glyph-name="uogonek.alt" horiz-adv-x="1212" 
d="M166 418v606h129v-567q0 -81 13.5 -142t45 -111t90 -76t142.5 -26q68 0 119.5 18t84.5 48.5t53 76.5t28 97t8 115v567h129v-606q0 -303 -211 -400q-109 -77 -175.5 -162t-66.5 -157q0 -47 28.5 -74.5t88.5 -27.5q47 0 127 22l-13 -104q-70 -21 -131 -21q-98 0 -154.5 52
t-56.5 141q0 139 183 295q-12 -2 -41 -2q-93 0 -165.5 23t-119.5 63t-78 96.5t-44 119t-13 136.5z" />
    <glyph glyph-name="question.alt" horiz-adv-x="800" 
d="M367 633v-227h-129v323q74 2 140.5 24.5t120.5 63t85.5 106t31.5 146.5q0 52 -13.5 96.5t-42 82.5t-79.5 59.5t-121 21.5q-143 0 -276 -65v133q135 57 285 57q99 0 174 -30t120 -82.5t67 -118t22 -142.5q0 -100 -36 -183.5t-94 -136.5t-123.5 -85.5t-131.5 -42.5zM195 84
q0 44 31 75t75 31q43 0 74 -31t31 -75q0 -43 -31 -73.5t-74 -30.5q-44 0 -75 30.5t-31 73.5z" />
    <glyph glyph-name="zero.pnum" horiz-adv-x="1245" 
d="M215 717q0 -125 25.5 -234t74.5 -194.5t128.5 -135t179.5 -49.5q133 0 227.5 86.5t138 222.5t43.5 304q0 125 -25.5 234t-75 194t-129 134.5t-179.5 49.5t-179.5 -49.5t-128.5 -134.5t-74.5 -194t-25.5 -234zM80 717q0 155 35 287.5t101 233.5t171 158.5t236 57.5
t235.5 -57.5t171 -158.5t101 -233.5t34.5 -287.5t-34.5 -287.5t-101 -233.5t-171 -158.5t-235.5 -57.5t-236 57.5t-171 158.5t-101 233.5t-35 287.5z" />
    <glyph glyph-name="one.pnum" horiz-adv-x="1245" 
d="M1087 0h-905v123h391v1163l-370 -98v129l444 119h60v-1313h380v-123z" />
    <glyph glyph-name="two.pnum" horiz-adv-x="1245" 
d="M158 0v111q126 85 229 163t205.5 173.5t172 185.5t112.5 192t43 199q0 144 -85.5 224.5t-228.5 80.5q-103 0 -217 -40.5t-211 -108.5v133q94 67 212 104t228 37q196 0 316.5 -116t120.5 -304q0 -435 -684 -911h749l-8 -123h-954z" />
    <glyph glyph-name="three.pnum" horiz-adv-x="1245" 
d="M1047 1311l-365 -469q87 -13 158.5 -41.5t131 -76t93 -122.5t33.5 -170q0 -90 -32.5 -170.5t-94 -144t-161.5 -100.5t-226 -37q-125 0 -233 36.5t-185 87.5l-8 134q207 -134 415 -134q98 0 175.5 29.5t123.5 77.5t69.5 105t23.5 118q0 108 -65.5 183t-168.5 108t-235 33
h-21v22l416 531h-721l10 123h867v-123z" />
    <glyph glyph-name="four.pnum" horiz-adv-x="1245" 
d="M90 434l533 1000h147l-510 -961h500v422h133v-422h250l-8 -125h-242v-348h-133v348h-639z" />
    <glyph glyph-name="five.pnum" horiz-adv-x="1245" 
d="M160 100l-8 131q82 -54 197 -90.5t231 -36.5q179 0 278.5 91.5t99.5 250.5q0 147 -89.5 224.5t-262.5 77.5q-116 0 -332 -56h-53l17 742h798l-10 -123h-657l-13 -484q176 45 285 45q215 0 333 -112t118 -314q0 -215 -132.5 -340.5t-363.5 -125.5q-127 0 -241.5 35.5
t-194.5 84.5z" />
    <glyph glyph-name="six.pnum" horiz-adv-x="1245" 
d="M162 657q0 797 540 797q184 0 340 -106l-10 -127q-153 108 -319 108q-110 0 -192 -43.5t-131 -123.5t-73 -184.5t-24 -234.5q72 59 172 96.5t215 37.5q189 0 306.5 -116t117.5 -315q0 -211 -121.5 -338.5t-337.5 -127.5q-246 0 -364.5 178.5t-118.5 498.5zM293 612
q0 -110 20.5 -201t61.5 -160.5t108 -108t154 -38.5q164 0 249 93t85 243t-84 232t-234 82q-100 0 -193.5 -37.5t-166.5 -104.5z" />
    <glyph glyph-name="seven.pnum" horiz-adv-x="1245" 
d="M436 0h-145l698 1309h-846l9 125h991v-109z" />
    <glyph glyph-name="eight.pnum" horiz-adv-x="1245" 
d="M623 -20q-216 0 -346 111t-130 286q0 72 24.5 133.5t59 100t77 68t72.5 42.5t52 18v2q-18 4 -45 17.5t-62 42t-64.5 64.5t-50 91.5t-20.5 118.5q0 71 28 138t80.5 121t136.5 87t188 33t187.5 -33t135 -87t78.5 -121t27 -138q0 -62 -20.5 -118t-49.5 -92t-64 -65
t-60.5 -42.5t-43.5 -18.5q21 -6 50 -18.5t72 -42t77 -68t59 -100t25 -133.5q0 -176 -129 -286.5t-344 -110.5zM623 676q-144 0 -243 -76.5t-99 -210.5q0 -127 93.5 -206t248.5 -79t246.5 79t91.5 206q0 90 -48 156.5t-123.5 98.5t-166.5 32zM623 1329q-75 0 -134 -23.5
t-93.5 -62t-52 -84t-17.5 -94.5q0 -117 82.5 -190.5t214.5 -73.5t213.5 73.5t81.5 190.5q0 49 -17 94.5t-51.5 84t-93 62t-133.5 23.5z" />
    <glyph glyph-name="nine.pnum" horiz-adv-x="1245" 
d="M1092 776q0 -186 -30.5 -329.5t-94.5 -249.5t-168.5 -161.5t-247.5 -55.5q-190 0 -340 106l10 127q155 -109 320 -109q110 0 192 43t131 123t73 184.5t24 235.5q-71 -60 -171.5 -97.5t-216.5 -37.5q-189 0 -306 116t-117 316q0 211 121 339t337 128q126 0 219.5 -48
t151 -138t85.5 -212.5t28 -279.5zM961 821q0 147 -35.5 259t-115 180.5t-194.5 68.5q-164 0 -248.5 -93t-84.5 -243t83.5 -231.5t233.5 -81.5q100 0 194 37t167 104z" />
    </font>
</defs>
</svg>
